Да здравствует Франция! / Vive la France (Микаэль Юн / Michael Youn) [2013, Франция, комедия, HDRip] [Лицензия]

Страницы :  1, 2  След.

Ответить на тему
 

Suxrob89 ®

Стаж: 7 лет

Сообщений: 933

Симпатии: 564

-Да здравствует Франция! / Vive la France- Страна: Франция / Légende Films, Gaumont, Makayel
Жанр: комедия
Год выпуска: 2013
Продолжительность: 01:36:56
Перевод: Профессиональный (полное дублирование) [Лицензия]
Субтитры: нет-Режиссер: Микаэль Юн / Michael Youn-В ролях: Хосе Гарсия, Микаэль Юн, Изабель Фунаро, Эри Абиттан, Жером Коммандёр, Венсан Москато, Жан Франсуа Кэйри, Франк Гастамбид, Мусса Мааскри, Хамид Наджах, Фатсах Буяхмед, Эмили Каен-Описание: Два пастуха из несуществующей арабской страны Табулистан отправляются в Париж, чтобы взорвать Эйфелеву башню.- -Сценарий: Микаэль Юн / Michael Youn, Доминик Горио / Dominique Gauriaud, Юрий Претте / Jurij Prette, Бернардо Барилли / Bernardo Barilli
Продюсер: Ален Голдман / Alain Goldman, Франц Ричард / Frantz Richard
Оператор: Стефан Ле Парк / Stéphane Le Parc
Композитор: Freaks / Freaks
Бюджет: €15 000 000
Сборы в России: $392 575
Мировая премьера: 16 января 2013
Релиз на DVD: 23 декабря 2013, Новый Диск»-Качество: HDRip
Контейнер: AVI
Видео: XviD, 720x304 (2.35:1), 1701 kbps, 24 fps, 0,324 bpp
Аудио: AC3 / 5.1 / 48 kHz / 448 kbps / 16 bit-

Media Info

Общее
Полное имя : G:\Da.zdravstvyet.Franciya.2013.D.HDRip.avi
Формат : AVI
Формат/Информация : Audio Video Interleave
Размер файла : 1,46 Гбайт
Продолжительность : 1 ч. 36 м.
Общий поток : 2159 Кбит/сек
Программа кодирования : VirtualDubMod 1.5.10.2 (build 2540/release)
Библиотека кодирования : VirtualDubMod build 2540/release
Видео
Идентификатор : 0
Формат : MPEG-4 Visual
Профиль формата : Advanced [email protected]
Параметр BVOP формата : 2
Параметр QPel формата : Нет
Параметр GMC формата : Без точки перехода
Параметр матрицы формата : Default (MPEG)
Идентификатор кодека : XVID
Идентификатор кодека/Подсказка : XviD
Продолжительность : 1 ч. 36 м.
Битрейт : 1701 Кбит/сек
Ширина : 720 пикселей
Высота : 304 пикселя
Соотношение сторон : 2,35:1
Частота кадров : 24,000 кадра/сек
Цветовое пространство : YUV
Субдискретизация насыщенности : 4:2:0
Битовая глубина : 8 бит
Тип развёртки : Прогрессивная
Метод сжатия : С потерями
Бит/(Пиксели*Кадры) : 0.324
Размер потока : 1,15 Гбайт (79%)
Библиотека кодирования : XviD 1.2.1 (UTC 2008-12-04)
Аудио
Идентификатор : 1
Формат : AC-3
Формат/Информация : Audio Coding 3
Расширение режима : CM (complete main)
Параметр Endianness формата : Big
Идентификатор кодека : 2000
Продолжительность : 1 ч. 36 м.
Вид битрейта : Постоянный
Битрейт : 448 Кбит/сек
Каналы : 6 каналов
Расположение каналов : Front: L C R, Side: L R, LFE
Частота : 48,0 КГц
Битовая глубина : 16 бит
Метод сжатия : С потерями
Размер потока : 311 Мбайт (21%)
Выравнивание : Разделение по промежуткам
Продолжительность промежутка : 42 мс. (1,00 видеокадр)
Время предзагрузки промежутка : 500 мс.

Скриншот с названием фильма

Скриншоты



Последний раз редактировалось: Suxrob89 (2014-01-28 23:28), всего редактировалось 1 раз

Создавать темы 13-Янв-2014 07:08

[Профиль]  [ЛС] 

ss08111995

Стаж: 4 года 7 месяцев

Сообщений: 46

Симпатии: 3

Раздаю По 200 качаю 0 kb/s значит ?

Создавать темы 13-Янв-2014 12:05

[Профиль]  [ЛС] 

TimaK

Стаж: 6 лет 3 месяца

Сообщений: 129

Симпатии: 23

Зря поставил 4-5 скрин это же просто замануха...

Создавать темы 14-Янв-2014 07:57

[Профиль]  [ЛС] 

kralyan

Стаж: 4 года 11 месяцев

Сообщений: 72

Симпатии: 7

Спасибо за релиз!
Почему такое скудное описание...(автор, это не к тебе относится). Предчувствие тупых приколов французов как в фильмах "Такси", когда жандармы тупили в поимке преступников...
Даже на нудистов не куплюсь, не скачаю aa

Создавать темы 17-Янв-2014 02:38

[Профиль]  [ЛС] 

axror4ik

Стаж: 4 года 11 месяцев

Сообщений: 4

Симпатии: 1

Раздача плиииз. Сидеры будьте добры)))))

Создавать темы 22-Янв-2014 18:37

[Профиль]  [ЛС] 

LOOSER

Стаж: 5 лет 1 месяц

Сообщений: 92

Симпатии: 9

встаньте на раздачу

Создавать темы 25-Янв-2014 13:18

[Профиль]  [ЛС] 

ruslan aka ismailov

Стаж: 3 года 10 месяцев

Сообщений: 6

афигительный филь ! равшан и джумшут по сравнению с ними отдыхают в сторонке ) очень смешной фильм ))

Создавать темы 26-Янв-2014 13:05

[Профиль]  [ЛС] 

Ulug'bek

Стаж: 7 лет 3 месяца

Сообщений: 15

пятый скрин убил)))

Создавать темы 28-Янв-2014 23:24

[Профиль]  [ЛС] 

Sherbek

Стаж: 3 года 9 месяцев

Сообщений: 15

Симпатии: 1

ta помогите скачат

Создавать темы 29-Янв-2014 17:30

[Профиль]  [ЛС] 

baxadur

Стаж: 4 года 1 месяц

Сообщений: 7

Симпатии: 6

У меня провайдер Узонлайн не качает

Создавать темы 30-Янв-2014 17:04

[Профиль]  [ЛС] 

Dilmurod 77

Стаж: 3 года 8 месяцев

Сообщений: 21

ФИЛМ КЛАССНЫЙ СПАСИБО ОДИН НОРМА ВТОРОЙ ГОЛУБОЙ ДАРМАЕД

Создавать темы 03-Фев-2014 16:23

[Профиль]  [ЛС] 

focusn1k

Стаж: 4 года 10 месяцев

Сообщений: 30

"Табулистан" просто убило !!
все страны где есть террористы кончаются на стан!?

Создавать темы 03-Фев-2014 23:22

[Профиль]  [ЛС] 

_Top_

Стаж: 5 лет 2 месяца

Сообщений: 6

Симпатии: 1

Табулистан это они имеют в виду узбекистан)))))так как имено мы граничим с таджиками и туркменами)))Таких примеров можно найти много. Частенько в фильмах используют выдуманные города и страны, наверное дабы не обижать существующие, но приподнести это как бы с намеком.

Создавать темы 09-Фев-2014 16:23

[Профиль]  [ЛС] 

bezdelent

Стаж: 4 года 2 месяца

Сообщений: 20

Фильм просто класс!
Не думаю что такое государство в принципе возможно: посмотрите на карту! Таджикистан посередке между Киргизией и Афганистаном зажат! Киргизия с Афганистаном даже не граничит. Думаю, выбор пал на эти страны из-за их кое-какой известности в Мире. Афганистан даже не обсуждается, а вот Киргизия возможно известна своими многочисленными госпереворотами. Ну а таджики.. может по своим размерам мож подошли??
Но мы средняя Азия! У нас можно лупить женщин)))! Ах какой танец - просто шикарный!!!!!!!!)) Табули - Табули - Табулистан)
Думаю казахи решили избавляться от "-стан" как раз после этого фильма cb Ржач!
Vive la France!!! ca mx


Последний раз редактировалось: bezdelent (2015-09-09 19:40), всего редактировалось 1 раз

Создавать темы 10-Фев-2014 21:33

[Профиль]  [ЛС] 

sardor007

Стаж: 5 лет 2 месяца

Сообщений: 14

фильм классный.

Создавать темы 12-Фев-2014 22:15

[Профиль]  [ЛС] 
Показать сообщения:    
Ответить на тему

Текущее время: 21-Авг 04:14

Часовой пояс: UTC + 5



Вы не можете начинать темы
Вы не можете отвечать на сообщения
Вы не можете редактировать свои сообщения
Вы не можете удалять свои сообщения
Вы не можете голосовать в опросах
Вы не можете прикреплять файлы к сообщениям
Вы не можете скачивать файлы