Палата / The Ward (Джон Карпентер) [2010 г., Ужасы, триллер, BDRip]

Ответить на тему
 

baho ®

Стаж: 4 года

Сообщений: 37

Симпатии: 3

Палата / The Ward
--Год выпуска: 2010
Страна: США
Жанр: Ужасы, триллер
Продолжительность: 01:28:55
Перевод: Профессиональный (полное дублирование)-Режиссер: Джон Карпентер-В ролях: Эмбер Хёрд,
Линдси Фонсека,
Даниэль Панабэйкер,
Джаред Харрис,
Мика Бурем,
Мэми Гаммер,
Рейла Афродит,
Лора Ли,
Шон Кук,
Сидни Свини--Описание: Кристен проходит лечение в психиатрической лечебнице. Вместе с ней проходят лечение еще четыре девушки.
По ночам, когда больница погружается во тьму, она слышит странные пугающие звуки и понимает, что они тут
не одни. Одна за другой девушки начинают исчезать, и Кристен понимает, что должна как можно скорее
выбраться отсюда. Пытаясь сбежать, она понимает, что истинная природа звуков намного ужаснее, чем могло
показаться вначале.--Доп. информация: бюджет $10 000 000
премьера (мир) 13 сентября 2010, ...
премьера (РФ) 16 июня 2011, «Каскад»
релиз на Blu-Ray 24 ноября 2011, «CP-Digital», ...
релиз на DVD 24 ноября 2011, «CP-Digital», ...--Качество: BDRip
Формат: AVI
Видео кодек: XviD
Аудио кодек: AC3
Видео: Xvid 720x304 23.976fps
Аудио: Dolby AC3 48000Hz 6ch 384kbps--

Media Info

General
Complete name : Палата. The.Ward_5.1Rd_5.1A.avi
Format : AVI
Format/Info : Audio Video Interleave
File size : 1.92 GiB
Duration : 1h 28mn
Overall bit rate : 3 097 Kbps
Writing application : VirtualDubMod 1.5.10.2 (build 2540/release)
Writing library : VirtualDubMod build 2540/release
Video
ID : 0
Format : MPEG-4 Visual
Format profile : Advanced [email protected]
Format settings, BVOP : Yes
Format settings, QPel : No
Format settings, GMC : No warppoints
Format settings, Matrix : Custom
Codec ID : XVID
Codec ID/Hint : XviD
Duration : 1h 28mn
Bit rate : 2 315 Kbps
Width : 720 pixels
Height : 304 pixels
Display aspect ratio : 2.35:1
Frame rate : 23.976 fps
Color space : YUV
Chroma subsampling : 4:2:0
Bit depth : 8 bits
Scan type : Progressive
Compression mode : Lossy
Bits/(Pixel*Frame) : 0.441
Stream size : 1.44 GiB (75%)
Writing library : XviD 1.2.1 (UTC 2008-12-04)
Audio #1
ID : 1
Format : AC-3
Format/Info : Audio Coding 3
Mode extension : CM (complete main)
Format settings, Endianness : Big
Codec ID : 2000
Duration : 1h 28mn
Bit rate mode : Constant
Bit rate : 384 Kbps
Channel count : 6 channels
Channel positions : Front: L C R, Side: L R, LFE
Sampling rate : 48.0 KHz
Bit depth : 16 bits
Compression mode : Lossy
Stream size : 244 MiB (12%)
Alignment : Split accross interleaves
Interleave, duration : 42 ms (1.00 video frame)
Interleave, preload duration : 500 ms
Audio #2
ID : 2
Format : AC-3
Format/Info : Audio Coding 3
Mode extension : CM (complete main)
Format settings, Endianness : Big
Codec ID : 2000
Duration : 1h 28mn
Bit rate mode : Constant
Bit rate : 384 Kbps
Channel count : 6 channels
Channel positions : Front: L C R, Side: L R, LFE
Sampling rate : 48.0 KHz
Bit depth : 16 bits
Compression mode : Lossy
Stream size : 244 MiB (12%)
Alignment : Split accross interleaves
Interleave, duration : 42 ms (1.00 video frame)
Interleave, preload duration : 500 ms

Скриншоты


--


Последний раз редактировалось: baho (2014-01-13 14:25), всего редактировалось 1 раз

Создавать темы 13-Янв-2014 12:29

[Профиль]  [ЛС] 

vanfank

Стаж: 4 года 5 месяцев

Сообщений: 141

Симпатии: 5

baho, Как кино ? интересный ?
вообще классный фильм он запутаный ближе к концу все становится понятно!

Создавать темы 13-Янв-2014 12:50

[Профиль]  [ЛС] 

baho ®

Стаж: 4 года

Сообщений: 37

Симпатии: 3

baho, Как кино ? интересный ?
очень интересный фильм. Всем приятного просмотра.


Последний раз редактировалось: baho (2014-01-13 20:30), всего редактировалось 1 раз

Создавать темы 13-Янв-2014 13:20

[Профиль]  [ЛС] 

СтАсИкОс

Стаж: 6 лет 9 месяцев

Сообщений: 314

Симпатии: 20

Качество: качество видео
Формат: формат файла
Видео кодек: использованный видеокодек
Аудио кодек: использованный аудиокодек
Видео: разрешение кадра (в пикселях), значение видеобитрейта (kbps) и частота кадров в секунду (fps) (пример720х304 , 23.976 fps, 1773 Kbps )
Аудио: значение аудиобитрейта (kbps), количество аудиоканалов (ch) для каждой из дорожек. (пример48.0 KHz, AC-3, 384 Kbps (6 ch) )
Оформите по шаблону

Создавать темы 13-Янв-2014 13:33

[Профиль]  [ЛС] 

baho ®

Стаж: 4 года

Сообщений: 37

Симпатии: 3

ок ab


Последний раз редактировалось: baho (2014-01-17 18:06), всего редактировалось 1 раз

Создавать темы 13-Янв-2014 14:26

[Профиль]  [ЛС] 

toxa_6666

Стаж: 5 лет 9 месяцев

Сообщений: 2

Симпатии: 1

девушка на постере на Шерон Стоун похожа)

Создавать темы 13-Янв-2014 19:56

[Профиль]  [ЛС] 

jamik1003

Стаж: 5 лет 7 месяцев

Сообщений: 60

Симпатии: 3

Я этот фильм смотрел 3 года назад еще одноголосым))) Лично я этот фильм оценил на 9 из 10. Фильм понравится тем, кто любит ужастики, связанные с психушкой. Тем более полное дублирование, а ведь в основном полного дублирования удостаиваются хорошие фильмы. Так что делайте свои выводы.

Создавать темы 20-Янв-2014 00:21

[Профиль]  [ЛС] 

outoforder

Стаж: 4 года 11 месяцев

Сообщений: 812

Симпатии: 172

Недурно.

Создавать темы 06-Июл-2014 21:44

[Профиль]  [ЛС] 

Жасулан_89

Стаж: 5 лет 1 месяц

Сообщений: 70

Симпатии: 2

восстановите раздачу, двое сидов так и сидят, уже полтора месяца ни одного процента не скачано

Создавать темы 16-Июл-2014 10:53

[Профиль]  [ЛС] 

outoforder

Стаж: 4 года 11 месяцев

Сообщений: 812

Симпатии: 172

Жасулан_89, тередо настраивайте, жмите "позвать скачавших".
Инет от УОшников - со скрипом раздача 5-10 кбайт на пир.

Создавать темы 16-Июл-2014 20:52

[Профиль]  [ЛС] 
Показать сообщения:    
Ответить на тему

Текущее время: 23-Окт 01:48

Часовой пояс: UTC + 5



Вы не можете начинать темы
Вы не можете отвечать на сообщения
Вы не можете редактировать свои сообщения
Вы не можете удалять свои сообщения
Вы не можете голосовать в опросах
Вы не можете прикреплять файлы к сообщениям
Вы не можете скачивать файлы