Опасная иллюзия / The Necessary Death of Charlie Countryman (Фредрик Бонд) [2013 г., боевик, триллер, драма, мелодрама, комедия, ..., HDRip]

Ответить на тему
 

igor1968 ®

Стаж: 5 лет 6 месяцев

Сообщений: 366

Симпатии: 197

Опасная иллюзия / The Necessary Death of Charlie Countryman
Год выпуска: 2013
Страна:
Жанр: боевик, триллер, драма, мелодрама, комедия, ...
Продолжительность: 01:43:36.178
Перевод: Любительский (многоголосый закадровый) ["Paradox"]
Режиссер: Фредрик Бонд
В ролях: Шайа ЛаБаф, Эван Рэйчел Вуд, Мадс Миккельсен, Тиль Швайгер, Руперт Гринт, Джеймс Бакли, Ион Карамитру, Винсент Д’Онофрио, Мелисса Лео, Джон Хёрт
Избитый и израненный Чарли Кантримен подвешен вниз головой в центре Бухареста. Еще секунда — и в его сердце вонзится пуля, и жизнь молодого американского туриста оборвется.А ведь еще пару недель назад ничто не предвещало такого финала. Работа Чарли была скучной, но безопасной, а в личной жизни его лучшими друзьями были галлюциногенные вещества. И вдруг грянул гром — в наркотическом видении ему явилась покойная мама…- -премьера 21 января 2013, ...
премьера 27 февраля 2014, «Экспонента»
-
Качество: HDRip
Формат: AVI
Видео кодек: XviD
Аудио кодек: MPEG Audio
Видео: 720x400 (1.80:1), 23.976 fps, XviD build 50 ~800 kbps avg, 0.12 bit/pixel
Аудио: 48 kHz, MPEG Layer 3, 2 ch, ~128.00 kbps avg-

MediaInfo

General
Complete name : Charli.Cantrimen.2013.L2.HDRip.1400MB.avi
Format : AVI
Format/Info : Audio Video Interleave
File size : 695 MiB
Duration : 1h 43mn
Overall bit rate : 938 Kbps
Writing application : VirtualDubMod 1.5.10.3 | www.virtualdub-fr.org || (build 2550/release)
Writing library : VirtualDubMod build 2550/release
Video
ID : 0
Format : MPEG-4 Visual
Format profile : Advanced [email protected]
Format settings, BVOP : 2
Format settings, QPel : No
Format settings, GMC : No warppoints
Format settings, Matrix : Default (H.263)
Codec ID : XVID
Codec ID/Hint : XviD
Duration : 1h 43mn
Bit rate : 801 Kbps
Width : 720 pixels
Height : 400 pixels
Display aspect ratio : 16:9
Frame rate : 23.976 fps
Color space : YUV
Chroma subsampling : 4:2:0
Bit depth : 8 bits
Scan type : Progressive
Compression mode : Lossy
Bits/(Pixel*Frame) : 0.116
Stream size : 593 MiB (85%)
Writing library : XviD 1.2.1 (UTC 2008-12-04)
Audio
ID : 1
Format : MPEG Audio
Format version : Version 1
Format profile : Layer 3
Codec ID : 55
Codec ID/Hint : MP3
Duration : 1h 43mn
Bit rate mode : Constant
Bit rate : 128 Kbps
Channel(s) : 2 channels
Sampling rate : 48.0 KHz
Compression mode : Lossy
Stream size : 94.8 MiB (14%)
Alignment : Aligned on interleaves
Interleave, duration : 42 ms (1.00 video frame)
Interleave, preload duration : 504 ms
Writing library : LAME3.99r
Encoding settings : -m s -V 4 -q 2 -lowpass 17 -b 128
-

Скриншоты

- - -

Создавать темы 13-Янв-2014 18:19

[Профиль]  [ЛС] 

Snooker

Стаж: 3 года 10 месяцев

Сообщений: 18

Симпатии: 2

Отстой,еле досмотрел

Создавать темы 13-Янв-2014 19:18

[Профиль]  [ЛС] 

edgemza

Стаж: 6 лет 4 месяца

Сообщений: 191

Симпатии: 7

А рейтинг почему-то высокий?! Пожалуйста, кто посмотрел, скажите и ваше мнение о фильме?!

Создавать темы 14-Янв-2014 17:33

[Профиль]  [ЛС] 

TRIX

Стаж: 5 лет 8 месяцев

Сообщений: 6

Ну мне кажется из-за того что актёры отлично сыграли свою роль, и сюжет (это моё мнение)

Создавать темы 14-Янв-2014 21:31

[Профиль]  [ЛС] 

Alex Dancer

Стаж: 5 лет 8 месяцев

Сообщений: 181

Симпатии: 21

По рецензиям на кинопоиске фильм вроде хорощий, но вот качество звука меня смущает.
Если фильм действтельно хорош, то будет и лицензия. Хотя на кинопоиске данный факт не указан, так что тут не понятно чего ждать.

Создавать темы 21-Янв-2014 00:46

[Профиль]  [ЛС] 

SpelladoR

Стаж: 8 лет 3 месяца

Сообщений: 25

Хороший фильм саундтреки тоже.

Создавать темы 21-Янв-2014 09:47

[Профиль]  [ЛС] 

Lazerboy

Стаж: 6 лет 5 месяцев

Сообщений: 57

Симпатии: 13

по моему название было подругому
http://tas-ix.net/viewtopic.php?t=83106

Создавать темы 23-Янв-2014 11:34

[Профиль]  [ЛС] 

Rainbow

Стаж: 4 года 10 месяцев

Сообщений: 30

Отличный фильм)))) Мне очень понравился....

Создавать темы 05-Апр-2014 23:02

[Профиль]  [ЛС] 

Nogganov

Стаж: 4 года 3 месяца

Сообщений: 67

Симпатии: 1

стремный фильм

Создавать темы 04-Май-2014 15:35

[Профиль]  [ЛС] 
Показать сообщения:    
Ответить на тему

Текущее время: 24-Сен 17:21

Часовой пояс: UTC + 5



Вы не можете начинать темы
Вы не можете отвечать на сообщения
Вы не можете редактировать свои сообщения
Вы не можете удалять свои сообщения
Вы не можете голосовать в опросах
Вы не можете прикреплять файлы к сообщениям
Вы не можете скачивать файлы