Остров везения (Кирилл Козлов) [2013 г., комедия, ..., DVDRip]

Ответить на тему
 

igor1968 ®

Стаж: 5 лет 9 месяцев

Сообщений: 366

Симпатии: 197

Остров везения Год выпуска: 2013
Жанр: комедия, ...
Продолжительность: 01:16:30.720
Режиссер: Кирилл Козлов
В ролях: Роман Юнусов
Светлана Ходченкова
Агния Дитковските
Анна Хилькевич
Алексей Чумаков
Татьяна Орлова
Даша Астафьева
Юлия Гришина
Александр Сазонов
Мария Кравцова
...
Тихоокеанский лайнер. Полуобнажённые красотки, участвующие в конкурсе красоты. Шампанское и голубой океан… О таком бывшая звезда телевидения, а ныне ведущий дешёвых свадеб, даже и не мечтал. Однако круиз мечты неожиданно прервётся цепью невероятных событий. И наш герой окажется на необитаемом острове, в окружении трёх финалисток конкурса — принципиальной стервы, паникёрши и классической блондинки.
Что делать? Ведь лишившись возможности выиграть вожделенную корону, девушки его наверняка порвут на кусочки… Значит надо продолжать конкурс! Сделав вид, что так задумано, Роман начинает представление. Он убеждает девиц, что на острове понатыканы скрытые камеры и микрофоны, шоу выводится в эфир одного из главных каналов и вся страна теперь следит за финалом конкурса красоты! И всего-то нужно пройти пару испытаний под прицелом вон того ближайшего кокоса… то есть камеры. И пока девушки включаются в соревнование, наш герой ищет путь спасения с острова…- -премьера
5 декабря 2013, ...
премьера
5 декабря 2013, «Каропрокат»
релиз на DVD
14 января 2014, «Lizard Cinema Trade», ...
релиз на Blu-Ray
14 января 2014, «Lizard Cinema Trade», ...-Качество: DVDRip
Формат: AVI
Видео кодек: XviD
Аудио кодек: AC3
Видео: 720x304 (2.37:1), 25 fps, XviD build 50 ~2162 kbps avg, 0.40 bit/pixel
Аудио: 48 kHz, AC3 Dolby Digital, 3/2 (L,C,R,l,r) + LFE ch, ~384.00 kbps avg-

MediaInfo

General
Complete name : Ostrov.vezenja.2013.O.DVDRip.avi
Format : AVI
Format/Info : Audio Video Interleave
File size : 1.37 GiB
Duration : 1h 16mn
Overall bit rate : 2 556 Kbps
Writing application : VirtualDubMod 1.5.10.2 (build 2540/release)
Writing library : VirtualDubMod build 2540/release
Video
ID : 0
Format : MPEG-4 Visual
Format profile : Advanced [email protected]
Format settings, BVOP : 1
Format settings, QPel : No
Format settings, GMC : No warppoints
Format settings, Matrix : Default (MPEG)
Codec ID : XVID
Codec ID/Hint : XviD
Duration : 1h 16mn
Bit rate : 2 163 Kbps
Width : 720 pixels
Height : 304 pixels
Display aspect ratio : 2.35:1
Frame rate : 25.000 fps
Color space : YUV
Chroma subsampling : 4:2:0
Bit depth : 8 bits
Scan type : Progressive
Compression mode : Lossy
Bits/(Pixel*Frame) : 0.395
Stream size : 1.16 GiB (85%)
Writing library : XviD 1.2.1 (UTC 2008-12-04)
Audio
ID : 1
Format : AC-3
Format/Info : Audio Coding 3
Mode extension : CM (complete main)
Format settings, Endianness : Big
Codec ID : 2000
Duration : 1h 16mn
Bit rate mode : Constant
Bit rate : 384 Kbps
Channel(s) : 6 channels
Channel positions : Front: L C R, Side: L R, LFE
Sampling rate : 48.0 KHz
Bit depth : 16 bits
Compression mode : Lossy
Stream size : 210 MiB (15%)
Alignment : Split accross interleaves
Interleave, duration : 40 ms (1.00 video frame)
Interleave, preload duration : 500 ms
-

Скриншоты

- - -

Создавать темы 13-Янв-2014 21:45

[Профиль]  [ЛС] 

aziz2311

Стаж: 4 года 2 месяца

Сообщений: 57

Симпатии: 23

как фильм стоит качать??

Создавать темы 22-Янв-2014 12:34

[Профиль]  [ЛС] 

Astrolog

Стаж: 5 лет 6 месяцев

Сообщений: 213

Симпатии: 27

как фильм стоит качать??
Не рекомендовал бы.
Но дело вкуса...

Создавать темы 22-Янв-2014 12:41

[Профиль]  [ЛС] 

Ферузбек

Стаж: 4 года 8 месяцев

Сообщений: 3

а где кнопка "спасибо"?

Создавать темы 25-Фев-2014 18:34

[Профиль]  [ЛС] 

Astrolog

Стаж: 5 лет 6 месяцев

Сообщений: 213

Симпатии: 27

784797а где кнопка "спасибо"?
Заменена на Лайк ("Мне нравится" под сообщением пользователя).

Создавать темы 25-Фев-2014 19:00

[Профиль]  [ЛС] 
Показать сообщения:    
Ответить на тему

Текущее время: 13-Дек 06:40

Часовой пояс: UTC + 5



Вы не можете начинать темы
Вы не можете отвечать на сообщения
Вы не можете редактировать свои сообщения
Вы не можете удалять свои сообщения
Вы не можете голосовать в опросах
Вы не можете прикреплять файлы к сообщениям
Вы не можете скачивать файлы