Укушенная / Bitten (1 сезон / 13 серий) (Брэд Тернер, Джеймс Даннисон, Пол Фокс) [2014 г., ужасы, фэнтези, драма, детектив, HDTVRip] LostFilm.TV

Страницы :  1, 2  След.

Ответить на тему
 

CoolDX ®

Стаж: 6 лет 9 месяцев

Сообщений: 196

Симпатии: 59

Укушенная / Bitten
~ Полный 1 сезон, 13 серий~
-Год выпуска: 2014
Жанр: ужасы, фэнтези, драма, детектив
Выпущено: Канада
Продолжительность: ~ 13 x 43 мин.
Перевод: Профессиональное (многоголосое) LOSTFILM-Режиссеры: Брэд Тернер, Джеймс Даннисон, Пол Фокс-В ролях: Лора Вандервурт, Грейстон Холт, Грег Брайк, Пол Грин, Стив Ланд, Майкл Ксавьер, Дженелл Уильямс, Натали Браун, Майкл Лакетт, Фиона Хайет-О сериале: Сериал основан на серии романов канадской писательницы Келли Армстронг «Женщины иного мира».
Среди режиссеров нового шоу значатся такие опытные знатоки сериального делопроизводства и лауреаты многочисленных премий, как Пол Фокс («Красавица и чудовище»/Beauty and the Beast), Энди Микита («Перевозчик»/Transporter), Брэд Тернер («Спираль»/Helix). В комнате сценаристов работают тоже не новички: Грант Розенберг («Эврика»/Eureka), Уилл Паскоу и Диган Фрайклинд.-Сюжет: Елена (Лора Вандерворт («Визитеры»)) — единственная в мире женщина-оборотень. Она пытается жить обычной жизнью в Торонто, где работает фотографом, общается с друзьями, заводит отношения. Свою тайну Елена, разумеется, никому не открывает и со стаей давно не поддерживает никаких контактов. Но однажды в городе происходит событие, которое сулит вервольфам серьезные проблемы. Чтобы их избежать, оборотни должны объединить свои силы и найти того, кто перешел им дорогу.
Стая заявляется в город и выдергивает Елену из ее размеренной жизни. Теперь ей предстоит столкнуться с прошлым и, на время забыв про обычную жизнь, мобилизовать свою темную сторону, чтобы помочь стае разобраться с возникшей проблемой и сохранить собственные секреты...-IMDB рейтинг: 7.0/10 (3225 голосов)
Кинопоиск рейтинг: 5.953 (413 голосов)-Формат: AVI
Качество: HDTVRip
Видео: XviD, 720x400, 1 317 kbps, 23.976 fps, 0.191 bit/pixel
Аудио: 48 kHz, MP3, 2 ch, 192 kbps avg | Профессиональное (многоголосое) LOSTFILM-Релиз подготовлен при поддержке проекта CoolDX-

MediaInfo

General
Complete name : Bitten (Season 1) LostFilm.TV\Bitten.S01E01.rus.LostFilm.TV.avi
Format : AVI
Format/Info : Audio Video Interleave
File size : 469 MiB
Duration : 43mn 17s
Overall bit rate mode : Variable
Overall bit rate : 1 515 Kbps
Writing application : Nandub v1.0rc2
Writing library : Nandub build 1853/release
Video #0
ID : 0
Format : MPEG-4 Visual
Format profile : [email protected]
Format settings, BVOP : No
Format settings, QPel : No
Format settings, GMC : No warppoints
Format settings, Matrix : Default (H.263)
Codec ID : XVID
Codec ID/Hint : XviD
Duration : 43mn 17s
Bit rate : 1 317 Kbps
Width : 720 pixels
Height : 400 pixels
Display aspect ratio : 16:9
Frame rate : 23.976 fps
Color space : YUV
Chroma subsampling : 4:2:0
Bit depth : 8 bits
Scan type : Progressive
Compression mode : Lossy
Bits/(Pixel*Frame) : 0.191
Stream size : 408 MiB (87%)
Writing library : XviD 1.2.1 (UTC 2008-12-04)
Audio #1
ID : 1
Format : MPEG Audio
Format version : Version 1
Format profile : Layer 3
Mode : Joint stereo
Codec ID : 55
Codec ID/Hint : MP3
Duration : 43mn 17s
Bit rate mode : Variable
Bit rate : 192 Kbps
Channel(s) : 2 channels
Sampling rate : 48.0 KHz
Compression mode : Lossy
Stream size : 57.6 MiB (12%)
Alignment : Aligned on interleaves
Interleave, duration : 24 ms (0.58 video frame)
Interleave, preload duration : 549 ms
Writing library : LAME3.97b
Encoding settings : -m j -V 4 -q 3 -lowpass 18.6 --abr 192

Список серий:

01. Вызовы (Summons)
02. Блудная дочь (Prodigal)
03. Вторжение (Trespass)
04. Горе (Grief)
05. Укушенная (Bitten)
06. Приверженец (Committed)
07. Слежка (Stalking)
08. Узник (Prisoner)
09. Отмщение (Vengeance)
10. Наследие (Descent)
11. Осадок (Settling)
12. В клетке (Caged)
13. Готовность (Ready)

Скриншоты





Последний раз редактировалось: CoolDX (2014-04-08 02:48), всего редактировалось 20 раз(а)

Создавать темы 15-Янв-2014 01:56

[Профиль]  [ЛС] 

blackshark

Стаж: 6 лет 9 месяцев

Сообщений: 260

Симпатии: 23

Sonatrek, Спасибо сериал прикольный. Есть продолжения... Залей!

Создавать темы 15-Янв-2014 18:40

[Профиль]  [ЛС] 

pari

Стаж: 5 лет 4 месяца

Сообщений: 4

хочу дальше посмотреть (((

Создавать темы 17-Янв-2014 20:28

[Профиль]  [ЛС] 

CoolDX ®

Стаж: 6 лет 9 месяцев

Сообщений: 196

Симпатии: 59

добавлена 2ая серия

Создавать темы 23-Янв-2014 00:31

[Профиль]  [ЛС] 

makgayver

Стаж: 5 лет 1 месяц

Сообщений: 31

, Спасибо сериал прикольный

Создавать темы 23-Янв-2014 21:14

[Профиль]  [ЛС] 

CoolDX ®

Стаж: 6 лет 9 месяцев

Сообщений: 196

Симпатии: 59

добавлена 3ая серия

Создавать темы 04-Фев-2014 20:20

[Профиль]  [ЛС] 

nino

Стаж: 5 лет

Сообщений: 30

там оригинальной дорожки нет? нельзя ли добавлять с оригинальной дорожкой?

Создавать темы 14-Фев-2014 20:36

[Профиль]  [ЛС] 

CoolDX ®

Стаж: 6 лет 9 месяцев

Сообщений: 196

Симпатии: 59

добавлена 4ая серия

Создавать темы 15-Фев-2014 00:07

[Профиль]  [ЛС] 

CoolDX ®

Стаж: 6 лет 9 месяцев

Сообщений: 196

Симпатии: 59

там оригинальной дорожки нет? нельзя ли добавлять с оригинальной дорожкой?
на счет оригинальной дорожки ничем помочь не могу, на лостфильме не выкладывают SD релизы с оригинальной дорожкой....

Создавать темы 15-Фев-2014 00:12

[Профиль]  [ЛС] 

CoolDX ®

Стаж: 6 лет 9 месяцев

Сообщений: 196

Симпатии: 59

добавлена 5ая серия

Создавать темы 17-Фев-2014 23:41

[Профиль]  [ЛС] 

CoolDX ®

Стаж: 6 лет 9 месяцев

Сообщений: 196

Симпатии: 59

добавлена 6ая серия

Создавать темы 25-Фев-2014 09:10

[Профиль]  [ЛС] 

xushnud7272

Стаж: 5 лет 8 месяцев

Сообщений: 42

784508добавлена 6ая серия[/quot
Полный версия когда выйдет???

Создавать темы 26-Фев-2014 11:34

[Профиль]  [ЛС] 

CoolDX ®

Стаж: 6 лет 9 месяцев

Сообщений: 196

Симпатии: 59

785283
784508добавлена 6ая серия
Полный версия когда выйдет???
через 7~8 недель

Создавать темы 27-Фев-2014 16:29

[Профиль]  [ЛС] 

CoolDX ®

Стаж: 6 лет 9 месяцев

Сообщений: 196

Симпатии: 59

добавлена 7ая серия

Создавать темы 04-Мар-2014 23:07

[Профиль]  [ЛС] 

CoolDX ®

Стаж: 6 лет 9 месяцев

Сообщений: 196

Симпатии: 59

добавлена 8ая серия

Создавать темы 11-Мар-2014 17:39

[Профиль]  [ЛС] 
Показать сообщения:    
Ответить на тему

Текущее время: 27-Сен 03:51

Часовой пояс: UTC + 5



Вы не можете начинать темы
Вы не можете отвечать на сообщения
Вы не можете редактировать свои сообщения
Вы не можете удалять свои сообщения
Вы не можете голосовать в опросах
Вы не можете прикреплять файлы к сообщениям
Вы не можете скачивать файлы