Улики / Evidence (Олатунде Осунсанми / Olatunde Osunsanmi) [2013 г., триллер, ужасы, HDRip]

Ответить на тему
 

igor1968 ®

Стаж: 5 лет 5 месяцев

Сообщений: 366

Симпатии: 197

Улики / EvidenceСобери ужас по фрагментам Год выпуска: 2013
Страна:
Жанр: триллер, ужасы
Продолжительность: 01:33:56.636
Перевод: Профессиональный (полное дублирование)
Режиссер: Олатунде Осунсанми / Olatunde Osunsanmi
В ролях: Рада Митчелл, Стивен Мойер, Торри ДеВито, Нолан Фанк, Дейл Дикки, Гарри Дж. Ленникс, Кэйтлин Стэйси, Амл Амин, Джон Хеймс Ньютон, Светлана Меткина.
В пустыне, недалеко от Лас-Вегаса, полицейские находят автобус с несколькими трупами, изуродованными до такой степени, что опознать их практически невозможно, в добавок к этому на месте преступления они не нашли не одной улики. Расследование этого жесткого преступления поручают детективу Алекс Баркет. Девушка понимает, что без улик раскрыть это преступление практически невозможно, поэтому она берется за изучение мобильных телефонов и видеокамер, найденных на месте преступления. Тщательный просмотр видеозаписи помогает ей восстановить цепочку тех страшных событий. Однако через некоторое время она понимает, что преступник спланировал все заранее и прекрасно знал о том, что эти видеозаписи будут просматривать...- -премьера
2 мая 2013, ...
премьера
4 июля 2013, «Каравелла DDC»
релиз на DVD
7 августа 2013, «Кармен Видео», ...-Качество: HDRip
Формат: AVI
Видео кодек: XviD
Аудио кодек: MPEG Audio
Видео: 688x288 (2.39:1), 23.976 fps, XviD build 73 ~966 kbps avg, 0.20 bit/pixel
Аудио: 48 kHz, MPEG Layer 3, 2 ch, ~128.00 kbps avg-

MediaInfo

General
Complete name : Yliki.2013.HDRip.avi
Format : AVI
Format/Info : Audio Video Interleave
File size : 742 MiB
Duration : 1h 33mn
Overall bit rate : 1 104 Kbps
Writing application : VirtualDubMod 1.5.10.2 (build 2540/release)
Writing library : VirtualDubMod build 2540/release
Video
ID : 0
Format : MPEG-4 Visual
Format profile : Advanced [email protected]
Format settings, BVOP : 1
Format settings, QPel : No
Format settings, GMC : No warppoints
Format settings, Matrix : Custom
Codec ID : XVID
Codec ID/Hint : XviD
Duration : 1h 33mn
Bit rate : 967 Kbps
Width : 688 pixels
Height : 288 pixels
Display aspect ratio : 2.40:1
Frame rate : 23.976 fps
Color space : YUV
Chroma subsampling : 4:2:0
Bit depth : 8 bits
Scan type : Progressive
Compression mode : Lossy
Bits/(Pixel*Frame) : 0.203
Stream size : 650 MiB (88%)
Writing library : XviD 73
Audio
ID : 1
Format : MPEG Audio
Format version : Version 1
Format profile : Layer 3
Codec ID : 55
Codec ID/Hint : MP3
Duration : 1h 33mn
Bit rate mode : Constant
Bit rate : 128 Kbps
Channel(s) : 2 channels
Sampling rate : 48.0 KHz
Compression mode : Lossy
Stream size : 86.0 MiB (12%)
Alignment : Aligned on interleaves
Interleave, duration : 42 ms (1.00 video frame)
Interleave, preload duration : 504 ms
Writing library : LAME3.99r
Encoding settings : -m s -V 4 -q 2 -lowpass 17 -b 128
-

Скриншоты

- - -http://mytube.uz/tracks/283240.htm-


Последний раз редактировалось: igor1968 (2014-01-16 01:05), всего редактировалось 1 раз

Создавать темы 15-Янв-2014 04:29

[Профиль]  [ЛС] 

Muhammad Ali

Стаж: 5 лет 7 месяцев

Сообщений: 22

это же не ужастик)))))

Создавать темы 15-Янв-2014 16:26

[Профиль]  [ЛС] 

Jnec

Стаж: 4 года 10 месяцев

Сообщений: 165

Спасибо.

Создавать темы 17-Янв-2014 17:10

[Профиль]  [ЛС] 

Butty

Стаж: 4 года 11 месяцев

Сообщений: 96

Симпатии: 6

Мне понравился очень фильм , не особый , при чем концовка вообще сногшибательная

Создавать темы 17-Янв-2014 19:44

[Профиль]  [ЛС] 
Показать сообщения:    
Ответить на тему

Текущее время: 21-Авг 21:00

Часовой пояс: UTC + 5



Вы не можете начинать темы
Вы не можете отвечать на сообщения
Вы не можете редактировать свои сообщения
Вы не можете удалять свои сообщения
Вы не можете голосовать в опросах
Вы не можете прикреплять файлы к сообщениям
Вы не можете скачивать файлы