План побега / Escape Plan (Микаэль Хофстрём / Mikael Håfström) [2013, США, Боевик, триллер, детектив, HDTVRip] MVO

Ответить на тему
 

Suxrob89 ®

Стаж: 7 лет 2 месяца

Сообщений: 933

Симпатии: 564

-План побега / Escape Plan-«Из самой надежной тюрьмы в одиночку убежать невозможно»- Страна: США / EFF, Emmett/Furla Films, Summit Entertainment
Жанр: Боевик, триллер, детектив
Год выпуска: 2013
Продолжительность: 01:50:40
Перевод: Многоголосый закадровый, профессиональный
Cубтитры: нет-Режиссер: Микаэль Хофстрём / Mikael Håfström-В ролях: Сильвестр Сталлоне, Арнольд Шварценеггер, Джеймс Кэвизел, Фифти Сент, Винни Джонс, Винсент Д`Онофрио, Эми Райан, Сэм Нилл, Каитриона Бэлфи, Фаран Таир-Описание: Один из самых выдающихся мировых специалистов по системам безопасности соглашается на последнюю рисковую операцию: сбежать из суперсекретной высокотехнологичной тюрьмы, которую называют «Гробницей». Преданный Рэй Бреслин вынужден прибегнуть к помощи напарника — заключенного Эмиля Ротмайера, чтобы разработать отчаянный и практически неосуществимый план побега из самой защищенной тюрьмы в мире!- -Дата мировой премьеры: 18 июля 2013
Дата российской премьеры: 17 октября 2013, «Централ Партнершип»
Дата выхода DVD релиза: Нет информации-Качество видео: HDTVRip
Формат видео: AVI
Видео: 720x304 (2.35:1), 25 fps, XviD MPEG-4 ~1 757 kbps
Аудио: 48 kHz, AC3 Dolby Digital, 2/0 (L,R) ch, ~128 kbps

MediaInfo

D:\Plan.Pobega.2013.P.HDTVRip.1400MB.avi
General
Complete name : D:\Plan.Pobega.2013.P.HDTVRip.1400MB.avi
Format : AVI
Format/Info : Audio Video Interleave
File size : 1.46 GiB
Duration : 1h 50mn
Overall bit rate : 1 894 Kbps
Writing application : VirtualDubMod 1.5.10.2 (build 2540/release)
Writing library : VirtualDubMod build 2540/release
Video #0
ID : 0
Format : MPEG-4 Visual
Format profile : Advanced [email protected]
Format settings, BVOP : 2
Format settings, QPel : No
Format settings, GMC : No warppoints
Format settings, Matrix : Custom
Codec ID : XVID
Codec ID/Hint : XviD
Duration : 1h 50mn
Bit rate : 1 757 Kbps
Width : 720 pixels
Height : 304 pixels
Display aspect ratio : 2.35:1
Frame rate : 25.000 fps
Color space : YUV
Chroma subsampling : 4:2:0
Bit depth : 8 bits
Scan type : Progressive
Compression mode : Lossy
Bits/(Pixel*Frame) : 0.321
Stream size : 1.36 GiB (93%)
Writing library : XviD 1.2.1 (UTC 2008-12-04)
Audio #1
ID : 1
Format : AC-3
Format/Info : Audio Coding 3
Mode extension : CM (complete main)
Format settings, Endianness : Big
Codec ID : 2000
Duration : 1h 50mn
Bit rate mode : Constant
Bit rate : 128 Kbps
Channel(s) : 2 channels
Channel positions : Front: L R
Sampling rate : 48.0 KHz
Bit depth : 16 bits
Compression mode : Lossy
Stream size : 101 MiB (7%)
Alignment : Split accross interleaves
Interleave, duration : 40 ms (1.00 video frame)
Interleave, preload duration : 500 ms

Скриншот c названием фильма

Скриншоты

Создавать темы 15-Янв-2014 08:18

[Профиль]  [ЛС] 

gaffar

Стаж: 4 года 9 месяцев

Сообщений: 42

Симпатии: 1

Фильм проста супер! Но ждем лицуху! подскажите когда выйдет лицензия!

Создавать темы 15-Янв-2014 11:05

[Профиль]  [ЛС] 

mirislom

Стаж: 5 лет 5 месяцев

Сообщений: 6

Симпатии: 1

Дайте скорость плииииз

Создавать темы 15-Янв-2014 11:37

[Профиль]  [ЛС] 

AeRoNHanD

Стаж: 5 лет

Сообщений: 198

Симпатии: 3

[url=http://tas-ix.net/viewtopic.php?t=85369]
План побега / Escape Plan (Микаэль Хофстрём / Mikael Håfström) [2013, США, Боевик, триллер, детектив, HDTVRip][/url] в чем отличия

Создавать темы 15-Янв-2014 11:53

[Профиль]  [ЛС] 

Twista

Стаж: 5 лет 9 месяцев

Сообщений: 156

Симпатии: 15

[url=http://tas-ix.net/viewtopic.php?t=85369]
План побега / Escape Plan (Микаэль Хофстрём / Mikael Håfström) [2013, США, Боевик, триллер, детектив, HDTVRip][/url] в чем отличия
тут озвучка Baibako (моё мнение: отстойнейшая озвучка)
а там дубляж с кнотеатра
План побега / Escape Plan (Микаэль Хофстрём) [2013 г., боевик, триллер, детектив, HDTVRip]

_________________
Подпись отключена за нарушение правил форума

Создавать темы 15-Янв-2014 14:42

[Профиль]  [ЛС] 

vincent47

Стаж: 6 лет 8 месяцев

Сообщений: 89

Симпатии: 19

[url=http://tas-ix.net/viewtopic.php?t=85369]
План побега / Escape Plan (Микаэль Хофстрём / Mikael Håfström) [2013, США, Боевик, триллер, детектив, HDTVRip][/url] в чем отличия
тут озвучка Baibako (моё мнение: отстойнейшая озвучка)
а там дубляж с кнотеатра
План побега / Escape Plan (Микаэль Хофстрём) [2013 г., боевик, триллер, детектив, HDTVRip]
В выше указанной раздаче звук с ТС хоть и картинка хорошая, а тут по ходу озвучка по лучше. ИМХО Сухроб сюда особый шлак не заливает, по крайне мере его раздачи по большей мере в качестве все идут.

Создавать темы 15-Янв-2014 15:03

[Профиль]  [ЛС] 

Imperiya

Стаж: 6 лет 6 месяцев

Сообщений: 275

Симпатии: 4

План побега / Escape Plan (Микаэль Хофстрём) [2013 г., боевик, триллер, детектив, HDTVRip 720p] [Чистый Звук]

Создавать темы 15-Янв-2014 15:23

[Профиль]  [ЛС] 

Эмина

Стаж: 6 лет 5 месяцев

Сообщений: 23

Симпатии: 1

сегодня вообще скорость будет?зачем заливать если потом не раздаете?

Создавать темы 15-Янв-2014 17:49

[Профиль]  [ЛС] 

Dead_By_April

Стаж: 4 года 2 месяца

Сообщений: 32

на 4 скрине 50 cent

Создавать темы 15-Янв-2014 21:07

[Профиль]  [ЛС] 

pirat

Стаж: 5 лет 5 месяцев

Сообщений: 216

Симпатии: 63

Фильм Оггооонь....

Создавать темы 15-Янв-2014 22:41

[Профиль]  [ЛС] 

TimaK

Стаж: 6 лет 5 месяцев

Сообщений: 129

Симпатии: 23

Эээ... озвучка не так как в кинотеатре..

Создавать темы 16-Янв-2014 22:38

[Профиль]  [ЛС] 

Arklayt

Стаж: 3 года 9 месяцев

Сообщений: 3

Стойт задуматся над этим фильмом очень позновательный фильмец

Создавать темы 20-Янв-2014 21:53

[Профиль]  [ЛС] 

bullet

Стаж: 4 года 7 месяцев

Сообщений: 382

Симпатии: 37

Suxrob89, спасибо за фильм ay

Создавать темы 08-Фев-2014 22:48

[Профиль]  [ЛС] 

AZIZIK

Стаж: 4 года 11 месяцев

Сообщений: 190

Симпатии: 9

Дайте скорости пожалуйста,очень хочу посмотреть фильм

Создавать темы 21-Май-2014 23:52

[Профиль]  [ЛС] 
Показать сообщения:    
Ответить на тему

Текущее время: 18-Окт 19:46

Часовой пояс: UTC + 5



Вы не можете начинать темы
Вы не можете отвечать на сообщения
Вы не можете редактировать свои сообщения
Вы не можете удалять свои сообщения
Вы не можете голосовать в опросах
Вы не можете прикреплять файлы к сообщениям
Вы не можете скачивать файлы