Танец на набережной вампиров / Dance In The Vampire Bund (Симбо Акиюки) [TV] [12 из 12] [без хардсаба] [RUS(ext), JAP+SUB] [2010 г., приключения, вампиры, мистика, сёнэн, этти, BDRip] [720p]

Ответить на тему
 

MeiDoCorpse ®

Стаж: 4 года 5 месяцев

Сообщений: 222

Симпатии: 14

- Год выпуска: 2010
Страна: Япония
Жанр: приключения, вампиры, мистика, сёнэн, этти
Продолжительность: ТВ | 12 эп. по 25 мин.-Режиссёр: Симбо Акиюки
Автор оригинала: Тамаки Нодзому
Студия: Shaft-Описание:
Веками сородичи графа Дракулы тайно правили миром и скрывали свое существование, уводя людской интерес в сторону фольклора и выдумок. Но ничто не длится вечно, и дальний потомок графа, принцесса Мина Цепеш, юная правительница всех вампиров, решила открыться миру и поселиться среди людей. Для этого понадобилось всего-то уплатить государственный долг одной азиатской страны и втихомолку, не называя заказчика, воздвигнуть в Токийском заливе огромный искусственный остров, который очень скоро все станут звать Берегом Вампиров.
Признание существования расы вампиров и новость о создании их анклава на территории Японии произвели во всем мире эффект разорвавшейся бомбы. Очень многие люди и нелюди, мягко говоря, не обрадовались подобному заявлению, а еще большее число решило половить рыбку в мутной воде. Покушения на Мину Цепеш посыпались с обеих сторон, да вот убить бессмертную правительницу непросто, особенно когда ее защищают верные люди, а среди них Акира Кобураги Регендорф – молодой вервольф и личный телохранитель принцессы, с детства принесший ей клятву верности. Но что может получиться из вампирского Гонконга – Вавилона нового времени, места смешения рас и культур? Ответ даст творение студии SHAFT!
© Hollow, World Art-Дополнительная информация: первые 20 секунд 6-й серии без перевода - добавленная в БД сцена.-Cсылки: Официальная страница || AniDB || World Art || MAL-Качество: BDRip
Энкод: Yousei-raws
Контейнер: mkv
Тип видео: Без хардсаба
Наличие линковки: Нет
Видео: x264 (Hi10p), 1280x720, ~5500 Kbps, 23.976 fps
Аудио: Japanese, Vorbis, 48000Hz, ~256 Kbps, 2ch, в составе контейнера
Аудио: Russian, MP3, 48000Hz, ~192 Kbps, 2ch, внешними файлами | одноголосая (жен.) от Noir
Аудио: Russian, AAC, 48000Hz, ~192 Kbps, 2ch, внешними файлами | одноголосая (муж.) от Shachiburi
Субтитры: Russian, ASS, внешними файлами | перевод от Shift-

Список эпизодов

01. Promo Night
02. Howling
03. Teen Wolf
04. Interview with Vampire
05. Shadow of Vampire
06. From Dusk Till Dawn
07. Innocent Blood
08. Near Dark
09. Lost Boy
10. Walpurgis Night
11. Underworld
12. Dance in the Vampire Bund

Скриншоты

Подробные тех. данные

Общее
Уникальный идентификатор : 218720851056166858365603707916781614629 (0xA48C1A88E0C7A1C99A5305548BAFF625)
Полное имя : ***\Dance In The Vampire Bund [BD] [720p]\[Yousei-raws] Dance In The Vampire Bund 01 [BDrip 1280x720 x264 Vorbis].mkv
Формат : Matroska
Версия формата : Version 2
Размер файла : 955 Мбайт
Продолжительность : 23 м.
Режим общего битрейта : Переменный
Общий поток : 5655 Кбит/сек
Дата кодирования : UTC 2011-09-21 11:30:39
Программа кодирования : mkvmerge v2.9.7 ('Tenderness') built on Jul 1 2009 18:43:35
Библиотека кодирования : libebml v0.7.7 + libmatroska v0.8.1
Видео
Идентификатор : 1
Формат : AVC
Формат/Информация : Advanced Video Codec
Профиль формата : High [email protected]
Параметр CABAC формата : Да
Параметр ReFrames формата : 9 кадров
Идентификатор кодека : V_MPEG4/ISO/AVC
Продолжительность : 23 м.
Битрейт : 5405 Кбит/сек
Ширина : 1280 пикселей
Высота : 720 пикселей
Соотношение сторон : 16:9
Режим частоты кадров : Постоянный
Частота кадров : 23,976 кадра/сек
Цветовое пространство : YUV
Субдискретизация насыщенности : 4:2:0
Битовая глубина : 10 бит
Тип развёртки : Прогрессивная
Бит/(Пиксели*Кадры) : 0.245
Размер потока : 893 Мбайт (93%)
Библиотека кодирования : x264 core 116 r2074+610 09ac020
Настройки программы : cabac=1 / ref=9 / deblock=1:-2:-2 / analyse=0x3:0x133 / me=umh / subme=9 / psy=1 / fade_compensate=0.00 / psy_rd=0.90:0.00 / mixed_ref=1 / me_range=24 / chroma_me=1 / trellis=2 / 8x8dct=1 / cqm=0 / deadzone=21,11 / fast_pskip=1 / chroma_qp_offset=-2 / threads=12 / sliced_threads=0 / nr=0 / decimate=0 / interlaced=0 / bluray_compat=0 / constrained_intra=0 / fgo=0 / bframes=8 / b_pyramid=2 / b_adapt=2 / b_bias=0 / direct=3 / weightb=1 / open_gop=0 / weightp=2 / keyint=250 / keyint_min=23 / scenecut=40 / intra_refresh=0 / rc=2pass / mbtree=0 / bitrate=5405 / ratetol=1.0 / qcomp=0.70 / qpmin=8 / qpmax=40 / qpstep=4 / cplxblur=20.0 / qblur=0.5 / ip_ratio=1.40 / pb_ratio=1.30 / aq=1:0.90
Язык : English
Default : Да
Forced : Нет
Аудио
Идентификатор : 2
Формат : Vorbis
Параметр Floor формата : 1
Идентификатор кодека : A_VORBIS
Продолжительность : 23 м.
Вид битрейта : Переменный
Битрейт : 256 Кбит/сек
Каналы : 2 канала
Частота : 48,0 КГц
Метод сжатия : С потерями
Размер потока : 43,2 Мбайт (5%)
Библиотека кодирования : libVorbis (Schaufenugget) (20101101 (Schaufenugget))
Default : Да
Forced : Нет

Создавать темы 15-Янв-2014 13:46

[Профиль]  [ЛС] 

Азиз87

Стаж: 4 года 11 месяцев

Сообщений: 752

Симпатии: 143

Помню была такая АМв называется "on the steel fingers" от Umka. За релиз спасибо.

Создавать темы 16-Янв-2014 14:35

[Профиль]  [ЛС] 

scela

Стаж: 3 года 11 месяцев

Сообщений: 84

Симпатии: 3

Подскажите, не могу посмотреть с русской озвучкой, открываю в 3-х разных плеерах, везде японская озвучка, а WMP вообще не показывает? Если известна причина, как ее исправить?

Создавать темы 19-Янв-2014 01:38

[Профиль]  [ЛС] 

Rambotnik

Стаж: 6 лет 6 месяцев

Сообщений: 1274

Симпатии: 81

Закинье русские дорожки в одну папку с видеофайлами, после чего, в любом из плееров появится дополнительная дорожка (например, в MPC - аудио -> "название дорожки.mka").

Создавать темы 19-Янв-2014 02:00

[Профиль]  [ЛС] 

scela

Стаж: 3 года 11 месяцев

Сообщений: 84

Симпатии: 3

Спасибо, оперативно !

Создавать темы 19-Янв-2014 09:32

[Профиль]  [ЛС] 

scela

Стаж: 3 года 11 месяцев

Сообщений: 84

Симпатии: 3

Это опять scela. Я закинул файлы в папку с озвучкой, в обе папки с озвучкой (по очереди) и все равно японский, а если запустить одновременно аудио и видео файл, то видео нет идет только рус звук, но субтитры работают. в любом из плееров появится дополнительная дорожка (например, в MPC - аудио -> "название дорожки.mka") - я не совсем понял, как это использовать.

Создавать темы 19-Янв-2014 10:04

[Профиль]  [ЛС] 

MeiDoCorpse ®

Стаж: 4 года 5 месяцев

Сообщений: 222

Симпатии: 14

scela, копируете аудио файлы в папку с видео, запускаете, и в плеере переключаете аудио дорожку

пример:

Создавать темы 19-Янв-2014 10:32

[Профиль]  [ЛС] 

scela

Стаж: 3 года 11 месяцев

Сообщений: 84

Симпатии: 3

Спасибо разобрался. У меня в плеере немного по другому это делается, но принцип понял и сделал. Уже смотрю, спасибо.

Создавать темы 19-Янв-2014 12:07

[Профиль]  [ЛС] 

scela

Стаж: 3 года 11 месяцев

Сообщений: 84

Симпатии: 3

Скажите, есть 2-й сезон ?

Создавать темы 21-Янв-2014 00:37

[Профиль]  [ЛС] 

SNIL

Стаж: 5 лет 9 месяцев

Сообщений: 2624

Симпатии: 341

scela, нет

Создавать темы 21-Янв-2014 00:59

[Профиль]  [ЛС] 

Phantomhive

Стаж: 4 года 4 месяца

Сообщений: 218

Симпатии: 10

да жалко што нет

Создавать темы 21-Янв-2014 07:33

[Профиль]  [ЛС] 
Показать сообщения:    
Ответить на тему

Текущее время: 24-Окт 10:54

Часовой пояс: UTC + 5



Вы не можете начинать темы
Вы не можете отвечать на сообщения
Вы не можете редактировать свои сообщения
Вы не можете удалять свои сообщения
Вы не можете голосовать в опросах
Вы не можете прикреплять файлы к сообщениям
Вы не можете скачивать файлы