Диана: История любви / Diana (Оливер Хиршбигель / Oliver Hirschbiegel) [2013; Великобритания, Франция, Швеция, Бельгия; Драма, мелодрама, биография; WEB-DLRip] [iTunes]

Ответить на тему
 

jokerbek ®

Стаж: 6 лет 9 месяцев

Сообщений: 184

Симпатии: 9

Диана: История любви / Diana
«Принцесса, покорившая сердца миллионов. Кого любила она сама?» --Год выпуска: 2013
Страна: Великобритания, Франция, Швеция, Бельгия
Жанр: Драма, мелодрама, биография
Продолжительность: 01:52:33
Перевод: Профессиональный (полное дублирование) [iTunes]
Оригинальная звуковая дорожка: Английский
Субтитры: Нет--В ролях: Наоми Уоттс, Навин Эндрюс, Дуглас Ходж, Джеральдин Джеймс, Чарльз Эдвардс, Дэниэл Пайрри, Кэс Анвар, Джульет Стивенсон, Джонатан Керриган, Лоуренс Белчер.
Режиссёр: Оливер Хиршбигель / Oliver Hirschbiegel--Описание: Принцесса Диана — самая популярная женщина своего времени, еще при жизни названная «принцессой людских сердец». Она покорила сердца миллионов, ей признавались в любви все — от принца Англии до могущественных миллиардеров… Но кого любила она сама? Через несколько лет после расставания с принцем Чарльзом леди Диана почти забывает о личной жизни и посвящает себя общественной деятельности. Её график заполнен до предела, встречи и мероприятия идут нескончаемой чередой, пока, посещая одну из лондонских больниц, она случайно не знакомится с 36-летним кардиохирургом. Так начинается роман, ставший, по свидетельству многих друзей Дианы, «любовью всей её жизни». Официальные аудиенции в Кенсингтонском дворце и тайные свидания в ночных клубах, радость коротких встреч и боль расставаний, желание всегда быть вместе и стремление избежать огласки....--Рейтинг:
 
--Качество: WEB-DLRip
Формат: AVI
Видео кодек: XviD
Аудио кодек: AC3
Видео: XviD, 1834 Кбит/с, 720x400
Aудио: Русский (AC3, 6 ch, 384 Кбит/с), английский (AC3, 2 ch, 384 Кбит/с)

Знаете ли вы, что...

* Ювелирный бренд Chopard официально представил коллекцию ювелирных изделий, которые были использованы во время съемок фильма. Изделия практически точно воссоздают знаковые украшения, в которых принцесса Диана появлялась на важных мероприятиях.
* Постеры к фильму были случайно размещены на площади Альма в Париже, недалеко от входа в туннель, где принцесса погибла в автокатастрофе в 1997 году. Размещение плаката вызвало бурю негодования среди общественности, и в конечном итоге они были убраны по просьбе французского дистрибьютора Le Pacte.
* Джессика Честейн могла исполнить роль принцессы Дианы, но покинула проект из-за несогласованности расписания съемок.

MI

C:\Users\Cassius\Downloads\Diana.2013.D.WEB-DLRip.2100MB._tas-ix.net.avi
General
Complete name : C:\Users\Cassius\Downloads\Diana.2013.D.WEB-DLRip.2100MB._tas-ix.net.avi
Format : AVI
Format/Info : Audio Video Interleave
Format profile : OpenDML
File size : 2.05 GiB
Duration : 1h 52mn
Overall bit rate : 2 609 Kbps
Writing application : VirtualDubMod 1.5.10.2 (build 2540/release)
Writing library : VirtualDubMod build 2540/release
Video #0
ID : 0
Format : MPEG-4 Visual
Format profile : Advanced [email protected]
Format settings, BVOP : 2
Format settings, QPel : No
Format settings, GMC : No warppoints
Format settings, Matrix : Custom
Codec ID : XVID
Codec ID/Hint : XviD
Duration : 1h 52mn
Bit rate : 1 823 Kbps
Width : 720 pixels
Height : 400 pixels
Display aspect ratio : 16:9
Frame rate : 24.000 fps
Color space : YUV
Chroma subsampling : 4:2:0
Bit depth : 8 bits
Scan type : Progressive
Compression mode : Lossy
Bits/(Pixel*Frame) : 0.264
Stream size : 1.43 GiB (70%)
Writing library : XviD 1.2.1 (UTC 2008-12-04)
Audio #1
ID : 1
Format : AC-3
Format/Info : Audio Coding 3
Mode extension : CM (complete main)
Format settings, Endianness : Big
Codec ID : 2000
Duration : 1h 52mn
Bit rate mode : Constant
Bit rate : 384 Kbps
Channel count : 6 channels
Channel positions : Front: L C R, Side: L R, LFE
Sampling rate : 48.0 KHz
Bit depth : 16 bits
Compression mode : Lossy
Stream size : 309 MiB (15%)
Alignment : Split accross interleaves
Interleave, duration : 42 ms (1.00 video frame)
Interleave, preload duration : 500 ms
Audio #2
ID : 2
Format : AC-3
Format/Info : Audio Coding 3
Mode extension : CM (complete main)
Format settings, Endianness : Big
Codec ID : 2000
Duration : 1h 52mn
Bit rate mode : Constant
Bit rate : 384 Kbps
Channel count : 2 channels
Channel positions : Front: L R
Sampling rate : 48.0 KHz
Bit depth : 16 bits
Compression mode : Lossy
Stream size : 309 MiB (15%)
Alignment : Split accross interleaves
Interleave, duration : 42 ms (1.00 video frame)
Interleave, preload duration : 500 ms

Скриншоты





Последний раз редактировалось: jokerbek (2014-01-16 09:40), всего редактировалось 2 раз(а)

Создавать темы 15-Янв-2014 16:52

[Профиль]  [ЛС] 

Star Line

Стаж: 3 года 11 месяцев

Сообщений: 136

Симпатии: 26

Спасибо Огромное! я давно ждал этот фильм еще и в Лицензии. это классный фильм. много о нем говорят в политическом круге Европы и Америке.

Создавать темы 15-Янв-2014 17:31

[Профиль]  [ЛС] 

jokerbek ®

Стаж: 6 лет 9 месяцев

Сообщений: 184

Симпатии: 9

Спасибо Огромное! я давно ждал этот фильм еще и в Лицензии. это классный фильм. много о нем говорят в политическом круге Европы и Америке.
Пожалуйста mb

Создавать темы 15-Янв-2014 17:49

[Профиль]  [ЛС] 

Guff

Стаж: 5 лет 8 месяцев

Сообщений: 115

Симпатии: 164

хороший фильм!!

Создавать темы 16-Янв-2014 09:40

[Профиль]  [ЛС] 

jokerbek ®

Стаж: 6 лет 9 месяцев

Сообщений: 184

Симпатии: 9

хороший фильм!!
tf

Создавать темы 16-Янв-2014 22:18

[Профиль]  [ЛС] 

Jnec

Стаж: 4 года 10 месяцев

Сообщений: 165

Спасибо.

Создавать темы 18-Янв-2014 09:13

[Профиль]  [ЛС] 

ailormate

Стаж: 4 года 2 месяца

Сообщений: 10

Это что-то надо обязательно посмотреть. Замечательный фильм. Большое спасибо!

Создавать темы 20-Мар-2014 18:04

[Профиль]  [ЛС] 
Показать сообщения:    
Ответить на тему

Текущее время: 20-Сен 03:37

Часовой пояс: UTC + 5



Вы не можете начинать темы
Вы не можете отвечать на сообщения
Вы не можете редактировать свои сообщения
Вы не можете удалять свои сообщения
Вы не можете голосовать в опросах
Вы не можете прикреплять файлы к сообщениям
Вы не можете скачивать файлы