Нежданный жених / Mikakunin de Shinkoukei (Фудзивара Ёсиюки) [TV] [12 из 12] [без хардсаба] [JAP+SUB] [2014 г., романтика, школа, комедия, HDTVRip] [720p]

Ответить на тему
 

XaHTep ®

Стаж: 4 года 9 месяцев

Сообщений: 210

Симпатии: 6

--Нежданный жених
Engaged to the Unidentified
Mikakunin de Shinkoukei
-- Год выпуска: 2014
Страна: Япония-Жанр: комедия
Тип: ТВ
Продолжительность: (12 эп.), 25 мин.
Выпуск: c 09.01.2014 по 27.03.2014-Русские субтитры: внешним файлом
Перевод: Усатый Ня
Оформление, перевод песен: LeoDreaM-Студия:
Режиссер: Фудзивара Ёсиюки
-Описание: Кобэни Ёномори, симпатичная девушка и отличная хозяйка, получила на 16-й день рождения самый необычный подарок. Мать объявила, что по слову покойного деда, главы клана, Кобэни с детства помолвлена с наследником семьи Мицуминэ, своим ровесником по имени Хакуя. Сам суженый знатного рода, но вырос в горной деревне, и, чтобы обрести городской шик и приобщиться к цивилизации, отныне будет жить с ними – а вот, кстати, и он. Окончательно добило Ёномори-младшую явление вихря энергии в виде малышки Масиро Мицуминэ, которая с порога заявила, что не отдаст братика абы кому и быстро научит невестку жить по закону гор!
Впрочем, все вышло не так уж плохо. Малолетняя «золовка», поняв, что брату досталась вовсе не белоручка, быстро подобрела, а Бэнио, старшая из сестер Ёномори, ненавязчиво показала гостье, кто в доме хозяйка, да так, что бедная Масиро стала прятаться от будущей «сватьи». Ну а Хакуя оказался, словно самурай иной эпохи – загадочный, невозмутимый, не тратящий слов зря, но говорящий только по делу. Из обрывков фраз и прочих намеков Кобэни поняла, что помолвка возникла не на пустом месте, и их с Хакуей связывает давняя история. А раз так, незачем спешить - надо разобраться в себе и дать парню шанс. Не зря говорят – браки по расчету всегда удачны, если расчет был хороший!
© Hollow, World Art

-Качество: HDTVRip
Автор рипа: Zero-Raws
Формат: mp4
Видео: AVC (8 bits), 1280x720; 23.976 fps; ~1 899 Kbps, (16:9)
Аудио : JP - AAC, 48.0 KHz, ~256 kbps, 2 ch--

Подробные тех. данные

Формат : MPEG-4
Профиль формата : Base Media
Идентификатор кодека : isom
Размер файла : 322 Мбайт
Продолжительность : 23 м.
Режим общего битрейта : Переменный
Общий поток : 1899 Кбит/сек
Дата кодирования : UTC 2014-01-08 18:20:42
Дата пометки : UTC 2014-01-08 18:20:42
Видео
Идентификатор : 1
Формат : AVC
Формат/Информация : Advanced Video Codec
Профиль формата : [email protected]
Параметр CABAC формата : Да
Параметр ReFrames формата : 4 кадра
Идентификатор кодека : avc1
Идентификатор кодека/Информация : Advanced Video Coding
Продолжительность : 23 м.
Битрейт : 1643 Кбит/сек
Максимальный битрейт : 12,8 Мбит/сек
Ширина : 1280 пикселей
Высота : 720 пикселей
Соотношение сторон : 16:9
Режим частоты кадров : Постоянный
Частота кадров : 23,976 кадра/сек
Цветовое пространство : YUV
Субдискретизация насыщенности : 4:2:0
Битовая глубина : 8 бит
Тип развёртки : Прогрессивная
Бит/(Пиксели*Кадры) : 0.074
Размер потока : 279 Мбайт (86%)
Библиотека кодирования : x264 core 133 r2334 a3ac64b
Настройки программы : cabac=1 / ref=3 / deblock=1:0:0 / analyse=0x3:0x113 / me=hex / subme=7 / psy=1 / psy_rd=1.00:0.00 / mixed_ref=1 / me_range=16 / chroma_me=1 / trellis=1 / 8x8dct=1 / cqm=0 / deadzone=21,11 / fast_pskip=1 / chroma_qp_offset=-2 / threads=12 / lookahead_threads=2 / sliced_threads=0 / nr=0 / decimate=1 / interlaced=0 / bluray_compat=0 / constrained_intra=0 / bframes=3 / b_pyramid=2 / b_adapt=1 / b_bias=0 / direct=1 / weightb=1 / open_gop=0 / weightp=2 / keyint=250 / keyint_min=23 / scenecut=40 / intra_refresh=0 / rc_lookahead=40 / rc=crf / mbtree=1 / crf=19.5 / qcomp=0.60 / qpmin=0 / qpmax=69 / qpstep=4 / ip_ratio=1.40 / aq=1:1.00
Дата кодирования : UTC 2014-01-08 18:03:29
Дата пометки : UTC 2014-01-08 18:20:43
Аудио
Идентификатор : 2
Формат : AAC
Формат/Информация : Advanced Audio Codec
Профиль формата : LC
Идентификатор кодека : 40
Продолжительность : 23 м.
Вид битрейта : Переменный
Битрейт : 252 Кбит/сек
Максимальный битрейт : 263 Кбит/сек
Каналы : 2 канала
Расположение каналов : Front: L R
Частота : 48,0 КГц
Метод сжатия : С потерями
Размер потока : 42,8 Мбайт (13%)
Заголовок : aac#trackID=1:[email protected]
Язык : Japanese
Дата кодирования : UTC 2014-01-08 18:20:42
Дата пометки : UTC 2014-01-08 18:20:43
-

Название эпизодов

--Серия 01: «Первые Впечатления и Всё Такое»
Серия 02: «Золовка-лоли — это не так уж и плохо»
Серия 03: «Похоже, нас ждёт романтическая комедия»
Серия 04: «Она просто извращенка»
Серия 05: «А вот и мама»
Серия 06: «Заполню-ка я её золовко»
Серия 07: «Они — это они, а мы — это мы»
Серия 08: «Только сестра может излечить шрам, оставленный сестрой»
Серия 09: «Это было такое унижение! Мне так стыдно!»
Серия 10: «Определение слова \"Влюблённость\"»
Серия 11: «Наслаждаюсь своим платочком»
Серия 12: «Ты понял? Да, понял»--
-

Скриншоты

--


Последний раз редактировалось: XaHTep (2014-04-29 12:02), всего редактировалось 7 раз(а)

Создавать темы 16-Янв-2014 17:32

[Профиль]  [ЛС] 

FaraUchixa

Стаж: 4 года 4 месяца

Сообщений: 22

когда добавишь остальные серии на русской озвучке

Создавать темы 25-Янв-2014 22:15

[Профиль]  [ЛС] 

XaHTep ®

Стаж: 4 года 9 месяцев

Сообщений: 210

Симпатии: 6

FaraUchixa, Оригинальные серии выходят раз в неделю, это онгоинг, далее нужно подождать пока переведут и озвучат (это всё делают любители, так что, когда хотят, тогда и озвучат), только потом скачать и сюда добавить!

Создавать темы 26-Янв-2014 11:02

[Профиль]  [ЛС] 

Monroe

Стаж: 4 года 4 месяца

Сообщений: 220

Симпатии: 62

XaHTep, не могу не согласится с табой но похож что SHIZA Project не торопится переводить и озвучивать. Давно уже 4 серия вышло

Создавать темы 02-Фев-2014 08:15

[Профиль]  [ЛС] 

Азиз87

Стаж: 4 года 11 месяцев

Сообщений: 752

Симпатии: 143

XaHTep, не могу не согласится с табой но похож что SHIZA Project не торопится переводить и озвучивать. Давно уже 4 серия вышло
если RSS leopard-raws.org(или ему подобные) сообщило, что вышла новая серия, а на fansubs.ru нету перевода, то с чем вы не можете не согласится. Воисеры с пальца - слова к серии "высасывать" не могут, сказано не в обиду, а ввиду субъективной реальности.-Смотрел 2 дня тому назад 1ую серию понравилась давно не смотрел такие сюжеты.

Создавать темы 02-Фев-2014 11:26

[Профиль]  [ЛС] 

XaHTep ®

Стаж: 4 года 9 месяцев

Сообщений: 210

Симпатии: 6

Обновление! Добавлены вторая и третья серии. Из-за того что Ляля сильно задерживала выход серий её заменили на Тоню!

Создавать темы 17-Фев-2014 15:08

[Профиль]  [ЛС] 

Азиз87

Стаж: 4 года 11 месяцев

Сообщений: 752

Симпатии: 143

Не забудьте переименовать начальную папку с [SHIZA Project] Mikakunin de Shinkoukei TV [LyaLya & Nyasheek] [HDTVRip] на следующую [SHIZA Project] Mikakunin de Shinkoukei TV [HDTVRip]

Создавать темы 17-Фев-2014 16:17

[Профиль]  [ЛС] 

Monroe

Стаж: 4 года 4 месяца

Сообщений: 220

Симпатии: 62

Помолвлена с незнакомцем эпизод 10 - вышла 13 марта! tu Наверно SHIZA Project решили дождаться выхода последний серии Ааа потом озвучивать bv
Будем ждать tc

Создавать темы 15-Мар-2014 11:57

[Профиль]  [ЛС] 

XaHTep ®

Стаж: 4 года 9 месяцев

Сообщений: 210

Симпатии: 6

Обновление! Добавлены все серии. Релиз завершён.

Создавать темы 29-Апр-2014 11:57

[Профиль]  [ЛС] 

Топик был перенесен из форума Аниме онгоинги в форум RAW с фансабом
XaHTep

Создавать темы 29-Апр-2014 11:58

 

Monroe

Стаж: 4 года 4 месяца

Сообщений: 220

Симпатии: 62

Жаль что забросили так хотелось досмотреть до конца ma

Создавать темы 16-Май-2014 00:19

[Профиль]  [ЛС] 
Показать сообщения:    
Ответить на тему

Текущее время: 18-Окт 21:54

Часовой пояс: UTC + 5



Вы не можете начинать темы
Вы не можете отвечать на сообщения
Вы не можете редактировать свои сообщения
Вы не можете удалять свои сообщения
Вы не можете голосовать в опросах
Вы не можете прикреплять файлы к сообщениям
Вы не можете скачивать файлы