Starперцы / Last Vegas (2013) HDRip | BaibaKoStarперцы / Last Vegas (Джон Тёртелтауб / Jon Turteltaub) [2013, США, Комедия, драма, HDRip] (BaibaKo)

Ответить на тему
 

Suxrob89 ®

Стаж: 7 лет

Сообщений: 933

Симпатии: 564

-Starперцы / Last Vegas-«Мы - легенда»- Год выпуска: 2013
Производство: США / CBS Films, Gidden Media, Good Universe
Жанр: Комедия, Драма
Продолжительность: 01:44:59
Перевод: Профессиональный многоголосый [BaibaKo]
Субтитры: Отсутствуют-Дата мировой премьеры: 31 октября 2013
Дата российской премьеры: 14 ноября 2013, «Централ Партнершип»
Дата выхода DVD релиза: Нет информации-Режиссер: Джон Тёртелтауб
Продюсер: Эми Баэр, Джозеф Дрэйк, Лоуренс Марк
Актеры: Майкл Дуглас, Роберт Де Ниро, Морган Фриман, Кевин Клайн, Мэри Стинберген, Джерри Феррара, Романи Малко, Роджер Барт, Джоанна Глисон, Майкл Или, Бри Блэр, Эйприл Биллингсли, Стивен Скарпулла, Андреа Мур, Ной Харден, АрДжей Фаттори-Описание фильма:
Билли, Пэдди, Арчи и Сэм дружат больше полувека. И когда убежденный холостяк Билли наконец-то делает предложение своей юной подружке, великолепная четверка отправляется в Лас-Вегас, чтобы скинуть с себя груз прожитого и зажечь как в последний раз. Великовозрастные гуляки и не подозревают, как за десятилетия эволюционировал Город Грехов…- -Качество видео: HDRip
Формат: AVI
Видео кодек: XviD
Аудио кодек: AC3
Видео: XviD, 1528 Кбит/с, 720x304
Аудио: AC3, 6 ch, 448 Kbps 48000 Hz

Media info

D:\Starpercy.2013.P.HDRip.1400MB.avi
General
Complete name : D:\Starpercy.2013.P.HDRip.1400MB.avi
Format : AVI
Format/Info : Audio Video Interleave
File size : 1.46 GiB
Duration : 1h 44mn
Overall bit rate : 1 986 Kbps
Writing application : VirtualDubMod 1.5.10.2 (build 2540/release)
Writing library : VirtualDubMod build 2540/release
Video #0
ID : 0
Format : MPEG-4 Visual
Format profile : Advanced [email protected]
Format settings, BVOP : 2
Format settings, QPel : No
Format settings, GMC : No warppoints
Format settings, Matrix : Custom
Codec ID : XVID
Codec ID/Hint : XviD
Duration : 1h 44mn
Bit rate : 1 529 Kbps
Width : 720 pixels
Height : 304 pixels
Display aspect ratio : 2.35:1
Frame rate : 23.976 fps
Color space : YUV
Chroma subsampling : 4:2:0
Bit depth : 8 bits
Scan type : Progressive
Compression mode : Lossy
Bits/(Pixel*Frame) : 0.291
Stream size : 1.12 GiB (77%)
Writing library : XviD 1.2.1 (UTC 2008-12-04)
Audio #1
ID : 1
Format : AC-3
Format/Info : Audio Coding 3
Mode extension : CM (complete main)
Format settings, Endianness : Big
Codec ID : 2000
Duration : 1h 44mn
Bit rate mode : Constant
Bit rate : 448 Kbps
Channel(s) : 6 channels
Channel positions : Front: L C R, Side: L R, LFE
Sampling rate : 48.0 KHz
Bit depth : 16 bits
Compression mode : Lossy
Stream size : 336 MiB (23%)
Alignment : Split accross interleaves
Interleave, duration : 42 ms (1.00 video frame)
Interleave, preload duration : 500 ms

Скриншот c названием фильма

Скриншоты

Создавать темы 17-Янв-2014 06:56

[Профиль]  [ЛС] 

Вован

Стаж: 5 лет 6 месяцев

Сообщений: 85

Симпатии: 4

Baibako фильмы уже озвучивает? Не знал)

Создавать темы 17-Янв-2014 06:59

[Профиль]  [ЛС] 

vincent47

Стаж: 6 лет 6 месяцев

Сообщений: 89

Симпатии: 19

Как озвучка? Нормальная или режет слух и не в тему ?

Создавать темы 18-Янв-2014 02:09

[Профиль]  [ЛС] 

Infom

Стаж: 4 года 11 месяцев

Сообщений: 25

Чёрт классный фильм(со смыслом) Большое спасибо автору давно ждал!
Озвучка четкая. Короче фильму зачет.

Создавать темы 19-Янв-2014 14:01

[Профиль]  [ЛС] 

dte.moment

Стаж: 6 лет 7 месяцев

Сообщений: 13

Фильм ну не прям супер(

Создавать темы 22-Янв-2014 18:29

[Профиль]  [ЛС] 

VAIO

Стаж: 5 лет 7 месяцев

Сообщений: 1568

Симпатии: 1399

Хороший фильм, советую.

Создавать темы 22-Янв-2014 19:02

[Профиль]  [ЛС] 

kralyan

Стаж: 4 года 11 месяцев

Сообщений: 72

Симпатии: 7

Отличный фильм. Хороший смысл разбавлен хорошим юмором!

Создавать темы 24-Янв-2014 00:56

[Профиль]  [ЛС] 

The Khazratov

Стаж: 3 года 6 месяцев

Сообщений: 54

Симпатии: 1

Отличный фильм. Хороший смысл разбавлен хорошим юмором!
+1. Отличный Фильм. Спасибо

Создавать темы 27-Янв-2014 22:48

[Профиль]  [ЛС] 

Tricks

Стаж: 4 года 9 месяцев

Сообщений: 602

Симпатии: 21

Вот в хорошем качестве http://tas-ix.net/viewtopic.php?t=86464

Создавать темы 27-Янв-2014 23:03

[Профиль]  [ЛС] 

spiritual

Стаж: 3 года 6 месяцев

Сообщений: 1

эй, народ. а как качать?

Создавать темы 31-Янв-2014 22:15

[Профиль]  [ЛС] 

XuMo

Стаж: 3 года 7 месяцев

Сообщений: 61

Симпатии: 4

Хороший фильм, улыбнул. Каждому бы в свои 60 лет так отжигать:)

Создавать темы 04-Фев-2014 00:13

[Профиль]  [ЛС] 

X3JumperRaZ0R

Стаж: 5 лет 1 месяц

Сообщений: 177

Симпатии: 151

Фильм Ваще Огонь... Стари4ки Прут по полной)))

Создавать темы 04-Фев-2014 06:46

[Профиль]  [ЛС] 

Valtar

Стаж: 6 лет 6 месяцев

Сообщений: 67

озвучка ужас

Создавать темы 21-Мар-2014 15:46

[Профиль]  [ЛС] 
Показать сообщения:    
Ответить на тему

Текущее время: 22-Авг 18:06

Часовой пояс: UTC + 5



Вы не можете начинать темы
Вы не можете отвечать на сообщения
Вы не можете редактировать свои сообщения
Вы не можете удалять свои сообщения
Вы не можете голосовать в опросах
Вы не можете прикреплять файлы к сообщениям
Вы не можете скачивать файлы