Иван Царевич и Серый Волк 2 (Владимир Торопчин) [2013, Мультфильм, семейный, DVDRip] [Лицензия]

Страницы :  1, 2  След.

Ответить на тему
 

Suxrob89 ®

Стаж: 7 лет 2 месяца

Сообщений: 933

Симпатии: 564

-Иван Царевич и Серый Волк 2- Страна: Россия / Анимационная студия «Мельница»
Жанр: Мультфильм, семейный
Продолжительность: 01:09:46
Год выпуска: 2013
Перевод: Оригинальное [Лицензия]
Русские субтитры: нет-Режиссёр: Владимир Торопчин-Роли озвучивали: Никита Ефремов, Татьяна Бунина, Иван Охлобыстин, Михаил Боярский, Ирина Рахманова, Александр Боярский-Описание: В Тридевятом царстве, где живут наши герои — тишь, да благодать. Иван женился на Василисе, и «жили они долго и счастливо», да не тут-то было. Иван целыми днями пропадает с Волком на службе — укрепляет рубежи и оборонную мощь, мечтает перевести стрелки часов на семь часов назад, чтобы меньше спать, и больше работать. А Василисе — скучно, как всем девушкам, ей хочется романтики, ну, такой, как в сказках. И тогда она решает организовать свое похищение… Однако, когда такое бывало, что в сказках все получалось так, как задумывалось ?- -Качество: DVDRip
Формат: AVI
Видео: 720x400 (16:9), 25.000 fps, Xvid - 2348 kbps avg, 0.326 bit/pixel
Аудио: Русский, 48.0 KHz, AC3, 6.0 ch, 448 kbps
Субтитры: Отсутствуют

Подробные технические данные

Общее
Полное имя                               : D:\Торренты\Ivan.Tsarevich.i.Seriy.Volk.2.O.DVDRip.1400MB.avi
Формат                                   : AVI
Формат/Информация                        : Audio Video Interleave
Размер файла                             : 1,37 Гбайт
Продолжительность                        : 1 ч. 9 м.
Общий поток                              : 2806 Кбит/сек
Программа кодирования                    : VirtualDubMod 1.5.10.3 | www.virtualdub-fr.org || (build 2550/release)
Библиотека кодирования                   : VirtualDubMod build 2550/release
Видео
Идентификатор                            : 0
Формат                                   : MPEG-4 Visual
Профиль формата                          : Advanced Simple@L5
Параметр BVOP формата                    : 2
Параметр QPel формата                    : Нет
Параметр GMC формата                     : Без точки перехода
Параметр матрицы формата                 : Default (MPEG)
Идентификатор кодека                     : XVID
Идентификатор кодека/Подсказка           : XviD
Продолжительность                        : 1 ч. 9 м.
Битрейт                                  : 2348 Кбит/сек
Ширина                                   : 720 пикселей
Высота                                   : 400 пикселей
Соотношение сторон                       : 16:9
Частота кадров                           : 25,000 кадров/сек
Цветовое пространство                    : YUV
Субдискретизация насыщенности            : 4:2:0
Битовая глубина                          : 8 бит
Тип развёртки                            : Прогрессивная
Метод сжатия                             : С потерями
Бит/(Пиксели*Кадры)                      : 0.326
Размер потока                            : 1,14 Гбайт (84%)
Библиотека кодирования                   : XviD 1.2.1 (UTC 2008-12-04)
Аудио
Идентификатор                            : 1
Формат                                   : AC-3
Формат/Информация                        : Audio Coding 3
Расширение режима                        : CM (complete main)
Параметр Endianness формата              : Big
Идентификатор кодека                     : 2000
Продолжительность                        : 1 ч. 9 м.
Вид битрейта                             : Постоянный
Битрейт                                  : 448 Кбит/сек
Каналы                                   : 6 каналов
Расположение каналов                     : Front: L C R, Side: L R, LFE
Частота                                  : 48,0 КГц
Битовая глубина                          : 16 бит
Метод сжатия                             : С потерями
Размер потока                            : 224 Мбайт (16%)
Выравнивание                             : Разделение по промежуткам
Продолжительность промежутка             : 40  мс. (1,00 видеокадр)
Время предзагрузки промежутка            : 500  мс.

Скриншоты

Создавать темы 17-Янв-2014 07:08

[Профиль]  [ЛС] 

dimanich77

Стаж: 7 лет 3 месяца

Сообщений: 16

ВАУ! Уже? Качаю!

Создавать темы 17-Янв-2014 10:15

[Профиль]  [ЛС] 

титан

Стаж: 4 года 5 месяцев

Сообщений: 27

Симпатии: 2

Народ блин не могу скачать в чем дело?

Создавать темы 17-Янв-2014 15:15

[Профиль]  [ЛС] 

Don_OmaR

Стаж: 5 лет 7 месяцев

Сообщений: 90

Симпатии: 5

Я Думаю после этого
Страна: Россия / Анимационная студия «Мельница»
Это будет ясно и понятно:
Перевод: Оригинальное [Лицензия]

Создавать темы 17-Янв-2014 15:35

[Профиль]  [ЛС] 

nikita15

Стаж: 5 лет 8 месяцев

Сообщений: 33

Народ блин не могу скачать в чем дело?
Я тоже не могу скачать(

Создавать темы 17-Янв-2014 19:17

[Профиль]  [ЛС] 

asaka

Стаж: 7 лет 3 месяца

Сообщений: 24

Симпатии: 7

mb спасибо


Последний раз редактировалось: asaka (2014-01-18 01:05), всего редактировалось 2 раз(а)

Создавать темы 17-Янв-2014 19:21

[Профиль]  [ЛС] 

Jnec

Стаж: 4 года 11 месяцев

Сообщений: 165

Спасибо большое!!!!!

Создавать темы 17-Янв-2014 20:26

[Профиль]  [ЛС] 

vikanam

Стаж: 4 года 7 месяцев

Сообщений: 7

встаньте на раздачу пожалуйста!!!

Создавать темы 19-Янв-2014 09:18

[Профиль]  [ЛС] 

Black_D1am0nD

Стаж: 4 года

Сообщений: 5

вчера смотрел рекламу сегодня бубу смотреть фильм ураа спс за оелиз большое

Создавать темы 19-Янв-2014 13:41

[Профиль]  [ЛС] 

Black_D1am0nD

Стаж: 4 года

Сообщений: 5

вчера смотрел рекламу сегодня бубу смотреть фильм ура спасибо за релиз большое

Создавать темы 19-Янв-2014 13:41

[Профиль]  [ЛС] 

Slope

Стаж: 6 лет 11 месяцев

Сообщений: 20

встаньте на раздачу,плз

_________________
Подпись отключена за нарушение правил форума

Создавать темы 21-Янв-2014 21:58

[Профиль]  [ЛС] 

Infom

Стаж: 5 лет 1 месяц

Сообщений: 25

где же скорость? со старперцами проблем не было!Встаньте на раздачу

Создавать темы 21-Янв-2014 22:10

[Профиль]  [ЛС] 

LordZET

Стаж: 6 лет 5 месяцев

Сообщений: 114

Симпатии: 37

плиззз дайте скорость

Создавать темы 24-Янв-2014 06:55

[Профиль]  [ЛС] 

VanHells

Стаж: 3 года 9 месяцев

Сообщений: 2

сухроб малоч!!!!

Создавать темы 24-Янв-2014 21:18

[Профиль]  [ЛС] 

nodiramalik

Стаж: 3 года 9 месяцев

Сообщений: 13

прикольный мультикhttp://tas-ix.net/posting.php#

Создавать темы 27-Янв-2014 15:26

[Профиль]  [ЛС] 
Показать сообщения:    
Ответить на тему

Текущее время: 20-Окт 08:18

Часовой пояс: UTC + 5



Вы не можете начинать темы
Вы не можете отвечать на сообщения
Вы не можете редактировать свои сообщения
Вы не можете удалять свои сообщения
Вы не можете голосовать в опросах
Вы не можете прикреплять файлы к сообщениям
Вы не можете скачивать файлы