(Classical, Piano) Шопен - Ноктюрны / Chopin - Nocturnes (Livia Rev) [2CD] - 1989, APE (image+.cue) lossless

Ответить на тему
 

razor2011 ®

Стаж: 5 лет 2 месяца

Сообщений: 227

Симпатии: 37

Шопен - Ноктюрны / Chopin - Nocturnes (Livia Rev) [2CD]
Жанр: Classical
Страна-производитель диска: England
Год издания диска: 1989
Издатель (лейбл): Hyperion
Номер по каталогу: CDA66341/2
Аудиокодек: APE
Тип рипа: image+.cue
Битрейт аудио: lossless
Продолжительность: 00:54:34 + 00:57:12
Битрейт аудио: 418-424 kbps
Источник: сеть
Наличие сканов в содержимом раздачи: да
Треклист:
ФРЕДЕРИК ШОПЕН (1810-1849)
Ноктюрны, диск 1:
01. E minor op 72 no 1 (4:40)
02. C sharp minor (3:42)
03. B flat minor op 9 no 1 (5:50)
04. E flat major op 9 no 2 (3:58)
05. B major op 9 no 3 (6:54)
06. F major op 15 no 3 (5:08)
07. F sharp major op 15 no 2 (3:16)
08. G minor op 15 no 3 (4:58)
09. C sharp major op 27 no 1 (5:30)
10. D flat major op 27 no 2 (5:55)
11. B major op 32 no 1 (4:44)
Ноктюрны, диск 2:
01. A flat major op 32 no 2 (5:22)
02. C minor (2:51)
03. G minor op 37 no 1 (6:01)
04. G major op 37 no 2 (5:53)
05. C minor op 48 no 1 (6:39)
06. F sharp minor op 48 no 2 (8:07)
07. F minor op 55 no 1 (4:19)
08. E flat minor op 55 no 2 (5:20)
09. B major op 62 no 1 (7:02)
10. E major op 62 no 2 (5:39)
Исполнители:
Livia Rev piano

Лог создания рипа

CD1

Exact Audio Copy V0.99 prebeta 5 from 4. May 2009
EAC extraction logfile from 15. August 2009, 12:10
Chopin - Livia Rev (pianist) / Nocturnes
Used drive : PHILIPS SPD2414T Adapter: 2 ID: 0
Read mode : Secure
Utilize accurate stream : Yes
Defeat audio cache : Yes
Make use of C2 pointers : No
Read offset correction : 6
Overread into Lead-In and Lead-Out : No
Fill up missing offset samples with silence : Yes
Delete leading and trailing silent blocks : No
Null samples used in CRC calculations : Yes
Used interface : Native Win32 interface for Win NT & 2000
Used output format : Internal WAV Routines
Sample format : 44.100 Hz; 16 Bit; Stereo
TOC of the extracted CD
Track | Start | Length | Start sector | End sector
---------------------------------------------------------
1 | 0:00.00 | 4:39.42 | 0 | 20966
2 | 4:39.42 | 3:41.38 | 20967 | 37579
3 | 8:21.05 | 5:49.55 | 37580 | 63809
4 | 14:10.60 | 3:58.22 | 63810 | 81681
5 | 18:09.07 | 6:53.60 | 81682 | 112716
6 | 25:02.67 | 5:07.53 | 112717 | 135794
7 | 30:10.45 | 3:15.65 | 135795 | 150484
8 | 33:26.35 | 4:58.32 | 150485 | 172866
9 | 38:24.67 | 5:29.43 | 172867 | 197584
10 | 43:54.35 | 5:55.37 | 197585 | 224246
11 | 49:49.72 | 4:43.58 | 224247 | 245529
Range status and errors
Selected range
Filename F:\Studio\CD1\Chopin - Livia Rev (pianist) - Nocturnes CD1.wav
Peak level 77.6 %
Range quality 99.9 %
Copy CRC 5CE63086
Copy OK
No errors occurred
AccurateRip summary
Track 1 accurately ripped (confidence 4) [E02BD185]
Track 2 accurately ripped (confidence 4) [AAE4012C]
Track 3 accurately ripped (confidence 4) [D1317FDD]
Track 4 accurately ripped (confidence 4) [AE7EACF9]
Track 5 accurately ripped (confidence 4) [B0B993BD]
Track 6 accurately ripped (confidence 4) [D9993FB8]
Track 7 accurately ripped (confidence 4) [154AD4F8]
Track 8 accurately ripped (confidence 4) [681D26BE]
Track 9 accurately ripped (confidence 4) [84A37967]
Track 10 accurately ripped (confidence 3) [EE8AB3CA]
Track 11 accurately ripped (confidence 4) [5F98FFA2]
All tracks accurately ripped
End of status report

CD2

Exact Audio Copy V0.99 prebeta 5 from 4. May 2009
EAC extraction logfile from 15. August 2009, 12:23
Chopin - Livia Rev (pianist) / Nocturnes - disc 2
Used drive : PHILIPS SPD2414T Adapter: 2 ID: 0
Read mode : Secure
Utilize accurate stream : Yes
Defeat audio cache : Yes
Make use of C2 pointers : No
Read offset correction : 6
Overread into Lead-In and Lead-Out : No
Fill up missing offset samples with silence : Yes
Delete leading and trailing silent blocks : No
Null samples used in CRC calculations : Yes
Used interface : Native Win32 interface for Win NT & 2000
Used output format : Internal WAV Routines
Sample format : 44.100 Hz; 16 Bit; Stereo
TOC of the extracted CD
Track | Start | Length | Start sector | End sector
---------------------------------------------------------
1 | 0:00.00 | 5:21.58 | 0 | 24132
2 | 5:21.58 | 2:50.40 | 24133 | 36922
3 | 8:12.23 | 6:01.05 | 36923 | 64002
4 | 14:13.28 | 5:52.50 | 64003 | 90452
5 | 20:06.03 | 6:39.37 | 90453 | 120414
6 | 26:45.40 | 8:07.05 | 120415 | 156944
7 | 34:52.45 | 4:18.43 | 156945 | 176337
8 | 39:11.13 | 5:20.05 | 176338 | 200342
9 | 44:31.18 | 7:01.62 | 200343 | 231979
10 | 51:33.05 | 5:39.13 | 231980 | 257417
Range status and errors
Selected range
Filename F:\Studio\CD2\Chopin - Livia Rev (pianist) - Nocturnes CD2.wav
Peak level 75.7 %
Range quality 99.9 %
Copy CRC 9CE1A633
Copy OK
No errors occurred
AccurateRip summary
Track 1 accurately ripped (confidence 5) [72D60A56]
Track 2 accurately ripped (confidence 5) [6F4DE013]
Track 3 accurately ripped (confidence 5) [B1EC9430]
Track 4 accurately ripped (confidence 5) [6321B520]
Track 5 accurately ripped (confidence 4) [5445E384]
Track 6 accurately ripped (confidence 5) [D7A7F9C2]
Track 7 accurately ripped (confidence 5) [970995EE]
Track 8 accurately ripped (confidence 5) [9754F2DB]
Track 9 accurately ripped (confidence 5) [82EB068B]
Track 10 accurately ripped (confidence 5) [BAE59BDB]
All tracks accurately ripped
End of status report

Создавать темы 17-Янв-2014 12:23

[Профиль]  [ЛС] 
Показать сообщения:    
Ответить на тему

Текущее время: 22-Ноя 14:29

Часовой пояс: UTC + 5



Вы не можете начинать темы
Вы не можете отвечать на сообщения
Вы не можете редактировать свои сообщения
Вы не можете удалять свои сообщения
Вы не можете голосовать в опросах
Вы не можете прикреплять файлы к сообщениям
Вы не можете скачивать файлы