Игра Эндера / Ender's Game (Гэвин Худ) [2013 г., Фантастика, Боевик, Приключения, HDTVRip]

Ответить на тему
 

razor0309 ®

Стаж: 3 года 11 месяцев

Сообщений: 13

Игра Эндера / Ender's Game
Год Выпуска: 2013
Страна: США
Жанр: Фантастика, Боевик, Приключения
Продолжительность: 01:40:51
Перевод: Профессиональный (Полное Дублирование) [Звук С TS] - Режиссер: Гэвин Худ
В Ролях: Эйса Баттерфилд, Харрисон Форд, Бен Кингсли, Виола Дэвис, Хейли Стайнфелд, Эбигейл Бреслин, Арамис Найт, Сурадж Партха, Мойзес Ариас, Кайлин Рамбо.- Описание: Действие происходит в 2135 году. Человечество пережило два вторжения инопланетной расы «жукеров», лишь чудом уцелев, и готовится к очередному вторжению. Для поиска пилотов и военачальников, способных принести Земле победу, создаётся военная школа, в которую отправляют самых талантливых детей. Среди этих детей Эндрю (Эндер) Виггин, будущий полководец Международного флота Земли и единственная надежда человечества на спасение.-
Качество: HDTVRip
Формат: AVI
Видео Кодек: XviD
Аудио Кодек: Mp3
Видео: 1620 kb/s, 720 x 304
Аудио: 128 kb/s (2 ch)

MediaInfo

D:\My Files\Entertainment\Movie\IgPa.EHdePa.2013.Dt.HDTVRip.1400Mb.avi
General
Complete name : D:\My Files\Entertainment\Movie\IgPa.EHdePa.2013.Dt.HDTVRip.1400Mb.avi
Format : AVI
Format/Info : Audio Video Interleave
File size : 1.39 GiB
Duration : 1h 53mn
Overall bit rate : 1 759 Kbps
Writing application : VirtualDubMod 1.5.10.2 (build 2540/release)
Writing library : VirtualDubMod build 2540/release
Video #0
ID : 0
Format : MPEG-4 Visual
Format profile : Advanced [email protected]
Format settings, BVOP : 2
Format settings, QPel : No
Format settings, GMC : No warppoints
Format settings, Matrix : Default (MPEG)
Muxing mode : Packed bitstream
Codec ID : XVID
Codec ID/Hint : XviD
Duration : 1h 53mn
Bit rate : 1 620 Kbps
Width : 720 pixels
Height : 304 pixels
Display aspect ratio : 2.35:1
Frame rate : 29.970 fps
Color space : YUV
Chroma subsampling : 4:2:0
Bit depth : 8 bits
Scan type : Progressive
Compression mode : Lossy
Bits/(Pixel*Frame) : 0.247
Stream size : 1.28 GiB (92%)
Writing library : XviD 64
Audio #1
ID : 1
Format : MPEG Audio
Format version : Version 1
Format profile : Layer 3
Codec ID : 55
Codec ID/Hint : MP3
Duration : 1h 53mn
Bit rate mode : Constant
Bit rate : 128 Kbps
Channel(s) : 2 channels
Sampling rate : 44.1 KHz
Compression mode : Lossy
Stream size : 103 MiB (7%)
Alignment : Split accross interleaves
Interleave, duration : 33 ms (1.00 video frame)
Interleave, preload duration : 500 ms

Скриншоты



Последний раз редактировалось: razor0309 (2014-01-18 16:08), всего редактировалось 7 раз(а)

Создавать темы 17-Янв-2014 20:18

[Профиль]  [ЛС] 

СтАсИкОс

Стаж: 6 лет 9 месяцев

Сообщений: 314

Симпатии: 20

Добавьте МедиаИнфо
Есть сомнения на счет техн характеристик.
http://tas-ix.net/viewtopic.php?t=5586

Создавать темы 17-Янв-2014 20:33

[Профиль]  [ЛС] 

razor0309 ®

Стаж: 3 года 11 месяцев

Сообщений: 13

Техн характеристики верны, я проверил

Создавать темы 17-Янв-2014 20:41

[Профиль]  [ЛС] 

СтАсИкОс

Стаж: 6 лет 9 месяцев

Сообщений: 314

Симпатии: 20

Сомнения на счет качества релиза HDTVRip

Создавать темы 17-Янв-2014 20:44

[Профиль]  [ЛС] 

razor0309 ®

Стаж: 3 года 11 месяцев

Сообщений: 13

Вот Скрин http://img.tas-ix.net/images/2013/4452545e92e2cb56da5b8d9d702e452b.jpg

Создавать темы 17-Янв-2014 20:51

[Профиль]  [ЛС] 

СтАсИкОс

Стаж: 6 лет 9 месяцев

Сообщений: 314

Симпатии: 20

razor0309, Да этот скрин ничего не показывает, ладно, оставим!

Создавать темы 17-Янв-2014 21:25

[Профиль]  [ЛС] 

Jackpots

Стаж: 5 лет

Сообщений: 8

качество так себе

Создавать темы 17-Янв-2014 21:51

[Профиль]  [ЛС] 

V!peR

Стаж: 6 лет 8 месяцев

Сообщений: 20

Симпатии: 3

Замените постер..видна ссылка..

Создавать темы 18-Янв-2014 08:32

[Профиль]  [ЛС] 

hunter07

Стаж: 4 года 4 месяца

Сообщений: 15

Симпатии: 1

сидов более 50чел. что со скоростью ??? или это какие то ткх. проблемы? обычно при таком кол-ве людей скорость до 2мб

Создавать темы 19-Янв-2014 22:50

[Профиль]  [ЛС] 

Axe

Стаж: 4 года 3 месяца

Сообщений: 9

Симпатии: 1

Мда, снято почти по книге.

Создавать темы 21-Янв-2014 22:43

[Профиль]  [ЛС] 

Axe

Стаж: 4 года 3 месяца

Сообщений: 9

Симпатии: 1

Не помню почему но в книге люди, боялись жукеров, и поэтому пошли на такие траты,смерти и риск(правда после уничтожения оказалось, что жукеры поняли людей и воевать не хотели). А в фильме жукеры уничтожаются чисто превентивно, из них весь фильм делают невинных жертв.

Создавать темы 21-Янв-2014 22:57

[Профиль]  [ЛС] 

Rosely

Стаж: 4 года 11 месяцев

Сообщений: 10

Симпатии: 1

Если со звуком будет всё в порядке, дайте знать.. Спасибо

Создавать темы 30-Янв-2014 11:56

[Профиль]  [ЛС] 
Показать сообщения:    
Ответить на тему

Текущее время: 18-Окт 10:53

Часовой пояс: UTC + 5



Вы не можете начинать темы
Вы не можете отвечать на сообщения
Вы не можете редактировать свои сообщения
Вы не можете удалять свои сообщения
Вы не можете голосовать в опросах
Вы не можете прикреплять файлы к сообщениям
Вы не можете скачивать файлы