Вий (Константин Ершов, Георгий Кропачев Худ. рук.: Александр Птушко) [1967 г., ужасы, мистика, DVDRip-AVC]

Ответить на тему
 

raru ®

Стаж: 6 лет 7 месяцев

Сообщений: 45

Симпатии: 4

- -Год выпуска: 1967
Жанр: ужасы, мистика
Продолжительность: 1:11:56-Режиссер: Константин Ершов, Георгий Кропачев
Худ. рук: Александр Птушко-В ролях: Леонид Куравлев, Наталья Варлей, Алексей Глазырин, Вадим Захарченко, Николай Кутузов, Петр Вескляров, Дмитрий Капка, Степан Шкурат, Николай Панасьев, Николай Яковченко-Описание: По одноименной повести великого русского писателя Николая Гоголя.
Вий — чудище, взятое из народного воображения. Имея огромные глаза с тяжелыми веками до самой земли, Вий не может ничего видеть сам по себе, но если удастся нескольким силачам поднять ему брови и веки железными вилами, тогда ничего не может утаиться перед грозным его взором: взглядом своим Вий убивает людей, разрушает и обращает в пепел города и деревни.
Однажды при таинственных обстоятельствах с ним познакомился главный герой фильма семинарист Хома Брут. В селе умерла молодая панночка, а отпевать ее (отслужить по ней церковную службу) выпало бедному Хоме. Панночка та была ведьмой... Вия со свитой, состоящей из упырей и вурдалаков, Хома увидел в третью, самую страшную, ночь своей службы… Все персонажи этой мистической истории - герои полуфантастического, причудливого мира, где сон пересекается с явью, а реальное с вымышленным.
-Доп. информация: Первый советский фильм ужасов.
—Идея экранизации «Вия» принадлежит известному советскому режиссёру, на тот момент директору кинокомпании Мосфильм, Ивану Пырьеву. Лишь по причине острой нехватки времени он предложил снять картину двум учащимся Высших режиссерских курсов Союза кинематографистов СССР Георгию Кропачёву и Константину Ершову.
—Съемки фильм производились в Богородчанском районе Ивано-Франковской области (ныне Украина). Однако отснятый на натуре материал разочаровал руководство Мосфильма, оказавшись «слишком реалистическим». Так к работе было решено привлечь известного режиссёра кино-сказочника Александра Птушко. В результате, много материала отснятого Ершовым и Кропачёвым было вырезано, ряд идей так и остались невоплощёнными. Изменён был и облик главного чудовища фильма - Вия.
-Качество: DVDRip-AVC
Формат: MKV
Видео: x264, 696x572 @ 742x572, 25.000 fps, 1800kbps
Аудио: AC3, 6ch, 48KHz, 448kbps-

Скриншоты




MediaInfo

Format : Matroska
Format version : Version 2
File size : 1.13 GiB
Duration : 1h 11mn
Overall bit rate : 2 250 Kbps
Encoded date : UTC 2012-02-09 05:16:57
Writing application : mkvmerge v5.0.0 ('Die Wahre Liebe') built on Sep 25 2011 20:33:49
Writing library : libebml v1.2.2 + libmatroska v1.3.0
Video
ID : 1
Format : AVC
Format/Info : Advanced Video Codec
Format profile : [email protected]
Format settings, CABAC : Yes
Format settings, ReFrames : 11 frames
Codec ID : V_MPEG4/ISO/AVC
Duration : 1h 11mn
Bit rate : 1 800 Kbps
Width : 696 pixels
Height : 572 pixels
Display aspect ratio : 1.297
Original display aspect ratio : 1.217
Frame rate : 25.000 fps
Color space : YUV
Chroma subsampling : 4:2:0
Bit depth : 8 bits
Scan type : Progressive
Bits/(Pixel*Frame) : 0.181
Stream size : 904 MiB (78%)
Title : Video=)
Writing library : x264 core 120 r2146 bcd41db
Encoding settings : cabac=1 / ref=11 / deblock=1:-2:-1 / analyse=0x3:0x133 / me=umh / subme=9 / psy=1 / psy_rd=1.00:0.10 / mixed_ref=1 / me_range=24 / chroma_me=1 / trellis=2 / 8x8dct=1 / cqm=0 / deadzone=21,11 / fast_pskip=1 / chroma_qp_offset=-3 / threads=6 / sliced_threads=0 / nr=0 / decimate=1 / interlaced=0 / bluray_compat=0 / constrained_intra=0 / bframes=8 / b_pyramid=2 / b_adapt=2 / b_bias=0 / direct=3 / weightb=1 / open_gop=0 / weightp=2 / keyint=250 / keyint_min=25 / scenecut=40 / intra_refresh=0 / rc_lookahead=60 / rc=2pass / mbtree=1 / bitrate=1800 / ratetol=1.0 / qcomp=0.60 / qpmin=0 / qpmax=69 / qpstep=4 / cplxblur=20.0 / qblur=0.5 / ip_ratio=1.40 / aq=1:1.00
Default : Yes
Forced : No
Audio
ID : 2
Format : AC-3
Format/Info : Audio Coding 3
Mode extension : CM (complete main)
Codec ID : A_AC3
Duration : 1h 11mn
Bit rate mode : Constant
Bit rate : 448 Kbps
Channel(s) : 6 channels
Channel positions : Front: L C R, Side: L R, LFE
Sampling rate : 48.0 KHz
Bit depth : 16 bits
Compression mode : Lossy
Stream size : 231 MiB (20%)
Title : AC3, 6ch, 48KHz, 448kbps
Language : Russian
Default : Yes
Forced : No
7.761 22 661
IMDb: 7.50 (2277)


Последний раз редактировалось: raru (2014-03-23 10:14), всего редактировалось 32 раз(а)

Создавать темы 17-Янв-2014 22:52

[Профиль]  [ЛС] 

vertical

Стаж: 3 года 11 месяцев

Сообщений: 38

Симпатии: 5

хорошенький фильмец.
Советую
А так жду в 3Д, видел трейлер, крутой)

Создавать темы 18-Янв-2014 03:58

[Профиль]  [ЛС] 
Показать сообщения:    
Ответить на тему

Текущее время: 23-Ноя 06:45

Часовой пояс: UTC + 5



Вы не можете начинать темы
Вы не можете отвечать на сообщения
Вы не можете редактировать свои сообщения
Вы не можете удалять свои сообщения
Вы не можете голосовать в опросах
Вы не можете прикреплять файлы к сообщениям
Вы не можете скачивать файлы