Олеся (Борис Ивченко) [1971 г., драма, TVRip]

Ответить на тему
 

Sf7 ®

Стаж: 3 года 10 месяцев

Сообщений: 8

Симпатии: 7

Олеся (экранизация одноименной повести Куприна)
Год выпуска: 1971
Страна: СССР
Жанр: драма
Продолжительность: 87 мин. / 01:27:56
Режиссер: Борис Ивченко
В ролях: Людмила Чурсина, Геннадий Воропаев, Борислав Брондуков, Анатолий Барчук, Мария Капнист, Владимир Волков, Лев Перфилов, Анатолий Юрченко, Юрий Гаврилюк, Нина Реус
Описание:
По одноименному повести Куприна.
Однажды, бродя по лесу, Иван Тимофеевич обнаружил на краю лесного болота покосившийся домик. В нем, прячась от людей, жили старуха и ее внучка Олеся. Много лет назад крестьяне изгнали их из села, посчитав ведьмами.
Поначалу для Ивана Тимофеевича эта встреча в провинциальной глуши с живой «колдуньей» была просто любопытной, интригующе забавной, но вскоре его покорила красота Олеси, незаурядная сила ее чувств, чистота и открытость ее души. И хотя девушка предвидела скорую разлуку, понимала и предчувствовала ее, она вверила и себя, и свою судьбу полюбившемуся «панычу».
Качество: TVRip
Формат: MPEG-4
Видео кодек: AVC
Аудио кодек: AAC
Видео: 640х480, 600 Kbps, 25 fps
Аудио: 44.1 KHz, 2 ch, 128 Kbps
Из видеохостинга скачано на максимальном качестве.

Mediainfo

General
Complete name : C:\Documents and Settings\All Users\Документы\Олеся.mp4
Format : MPEG-4
Format profile : Base Media
Codec ID : isom
File size : 431 MiB
Duration : 1h 20mn
Overall bit rate : 744 Kbps
Writing application : Lavf52.40.0
Video
ID : 1
Format : AVC
Format/Info : Advanced Video Codec
Format profile : [email protected]
Format settings, CABAC : Yes
Format settings, ReFrames : 3 frames
Codec ID : avc1
Codec ID/Info : Advanced Video Coding
Duration : 1h 20mn
Bit rate mode : Variable
Bit rate : 600 Kbps
Width : 640 pixels
Height : 480 pixels
Display aspect ratio : 4:3
Frame rate mode : Variable
Frame rate : 25.000 fps
Minimum frame rate : 12.500 fps
Maximum frame rate : 25.000 fps
Color space : YUV
Chroma subsampling : 4:2:0
Bit depth : 8 bits
Scan type : Progressive
Bits/(Pixel*Frame) : 0.078
Stream size : 353 MiB (82%)
Writing library : x264 core 79
Encoding settings : cabac=1 / ref=3 / deblock=1:0:0 / analyse=0x3:0x113 / me=hex / subme=7 / psy=1 / psy_rd=1.0:0.0 / mixed_ref=1 / me_range=16 / chroma_me=1 / trellis=1 / 8x8dct=1 / cqm=0 / deadzone=21,11 / chroma_qp_offset=-2 / threads=24 / nr=0 / decimate=1 / mbaff=0 / constrained_intra=0 / bframes=3 / b_pyramid=0 / b_adapt=1 / b_bias=0 / direct=1 / wpredb=32 / wpredp=2 / keyint=250 / keyint_min=25 / scenecut=40 / rc_lookahead=40 / rc=abr / mbtree=1 / bitrate=600 / ratetol=6.7 / qcomp=0.60 / qpmin=10 / qpmax=51 / qpstep=4 / ip_ratio=1.41 / aq=1:1.00
Audio
ID : 2
Format : AAC
Format/Info : Advanced Audio Codec
Format profile : LC
Codec ID : 40
Duration : 1h 20mn
Bit rate mode : Variable
Bit rate : 128 Kbps
Channel(s) : 2 channels
Channel positions : Front: L R
Sampling rate : 44.1 KHz
Compression mode : Lossy
Stream size : 74.1 MiB (17%)

Скриншоты





Последний раз редактировалось: Sf7 (2014-02-08 18:10), всего редактировалось 11 раз(а)

Создавать темы 18-Янв-2014 20:29

[Профиль]  [ЛС] 

victor0778

Стаж: 6 лет 8 месяцев

Сообщений: 1670

Симпатии: 142

http://tas-ix.net/viewtopic.php?p=37443#37443

Создавать темы 18-Янв-2014 20:41

[Профиль]  [ЛС] 

victor0778

Стаж: 6 лет 8 месяцев

Сообщений: 1670

Симпатии: 142

Sf7,
Качество: Telesync ?
Битрейт Аудио ?
Постер нормальный залейте
Секунды в продолжительности допишите

Создавать темы 18-Янв-2014 21:09

[Профиль]  [ЛС] 

Sf7 ®

Стаж: 3 года 10 месяцев

Сообщений: 8

Симпатии: 7

victor0778,
Спасибо! Всё исправил.

Создавать темы 18-Янв-2014 22:41

[Профиль]  [ЛС] 

victor0778

Стаж: 6 лет 8 месяцев

Сообщений: 1670

Симпатии: 142

Sf7, медиа инфо выложите

Создавать темы 19-Янв-2014 13:02

[Профиль]  [ЛС] 

Abdulla

Стаж: 5 лет 1 месяц

Сообщений: 13

Симпатии: 1

давайте оформляйте до конца! очень хочется посмотреть!

Создавать темы 21-Янв-2014 18:37

[Профиль]  [ЛС] 

Sf7 ®

Стаж: 3 года 10 месяцев

Сообщений: 8

Симпатии: 7

Abdulla, благодарю за ваш интерес! Сегодня надеюсь всё будет закончено и завтра уже сможете скачать! Смогу раздавать каждый день после 20:00. Удачи!

Создавать темы 21-Янв-2014 22:41

[Профиль]  [ЛС] 
Показать сообщения:    
Ответить на тему

Текущее время: 22-Окт 22:34

Часовой пояс: UTC + 5



Вы не можете начинать темы
Вы не можете отвечать на сообщения
Вы не можете редактировать свои сообщения
Вы не можете удалять свои сообщения
Вы не можете голосовать в опросах
Вы не можете прикреплять файлы к сообщениям
Вы не можете скачивать файлы