Грозовые ворота /(Серии: 1-4) (Андрей Малюков) [2006 г., Военный, Драма] SATRip

Ответить на тему
 

uzcard ®

Стаж: 3 года 8 месяцев

Сообщений: 17

Симпатии: 10

Грозовые ворота
Год выпуска: 2006
Страна: Россия
Жанр: Военный, Драма
Продолжительность: 52:26
Серии: 1-4 из 4
Режиссеры: Андрей Малюков
Сценаристы: Александр Буравский, Александр Тамоников, Анатолий Усов
Продюсеры: Анатолий Максимов, Константин Эрнст
В ролях: Анастасия Цветаева, Андрей Краско, Виктория Толстоганова, Вячеслав Разбегаев, Даниил Страхов, Иван Жидков, Михаил Ефремов, Михаил Пореченков, Евгений Потапенко, Марина Могилевская
Описание: Рота старшего лейтенанта Александра Доронина откомандирована на Северный Кавказ. Командир полка полковник Галкин поручает Доронину оборону перевала «Грозовые ворота». К роте Доронина прикомандировывают группу спецназа ГРУ под командованием майора Егорова, у которого несколько лет назад от рук террористов погибли жена и сын. Вскоре по прибытии на перевал, Егоров знакомит Доронина со своим доверенным лицом Шахом, бывшим чеченским генералом. У Шаха имеется достоверная информация, что к перевалу стягиваются крупные силы боевиков. Они готовятся нанести роте сокрушительный удар?
Качество: SATRip
Формат: AVI
Видео кодек: MPEG4
Видео: 704x384, 25.000 fps, 1 280 Kbps
Аудио: Русский : AAC, 159 kb/s, 48000Hz stereo

Скриншоты

MI

General
Complete name :
Format : MPEG-4
Format profile : Base Media / Version 2
Codec ID : mp42
File size : 541 MiB
Duration : 52mn 26s
Overall bit rate : 1 443 Kbps
Encoded date : UTC 2013-08-14 21:46:04
Tagged date : UTC 2013-08-14 21:53:17
Writing application : HandBrake 0.9.8 2012071800
Video
ID : 1
Format : AVC
Format/Info : Advanced Video Codec
Format profile : [email protected]
Format settings, CABAC : Yes
Format settings, ReFrames : 4 frames
Format settings, GOP : M=4, N=16
Codec ID : avc1
Codec ID/Info : Advanced Video Coding
Duration : 52mn 26s
Bit rate mode : Variable
Bit rate : 1 280 Kbps
Width : 704 pixels
Height : 384 pixels
Display aspect ratio : 16:9
Frame rate mode : Variable
Frame rate : 25.000 fps
Minimum frame rate : 12.500 fps
Maximum frame rate : 25.000 fps
Color space : YUV
Chroma subsampling : 4:2:0
Bit depth : 8 bits
Scan type : Progressive
Bits/(Pixel*Frame) : 0.189
Stream size : 480 MiB (89%)
Writing library : x264 core 120
Encoding settings : cabac=1 / ref=1 / deblock=1:0:0 / analyse=0x1:0x111 / me=hex / subme=2 / psy=1 / psy_rd=1.00:0.00 / mixed_ref=0 / me_range=16 / chroma_me=1 / trellis=0 / 8x8dct=0 / cqm=0 / deadzone=21,11 / fast_pskip=1 / chroma_qp_offset=0 / threads=6 / sliced_threads=0 / nr=0 / decimate=1 / interlaced=0 / bluray_compat=0 / constrained_intra=0 / bframes=3 / b_pyramid=2 / b_adapt=1 / b_bias=0 / direct=1 / weightb=1 / open_gop=0 / weightp=1 / keyint=250 / keyint_min=25 / scenecut=40 / intra_refresh=0 / rc_lookahead=10 / rc=crf / mbtree=1 / crf=20.0 / qcomp=0.60 / qpmin=3 / qpmax=69 / qpstep=4 / ip_ratio=1.40 / aq=1:1.00
Encoded date : UTC 2013-08-14 21:46:04
Tagged date : UTC 2013-08-14 21:53:17
Color primaries : BT.601-6 525, BT.1358 525, BT.1700 NTSC, SMPTE 170M
Transfer characteristics : BT.709-5, BT.1361
Matrix coefficients : BT.601-6 525, BT.1358 525, BT.1700 NTSC, SMPTE 170M
Audio
ID : 2
Format : AAC
Format/Info : Advanced Audio Codec
Format version : Version 4
Format profile : LC
Format settings, SBR : No
Codec ID : 40
Duration : 52mn 26s
Bit rate mode : Variable
Bit rate : 159 Kbps
Maximum bit rate : 229 Kbps
Channel(s) : 2 channels
Channel positions : Front: L R
Sampling rate : 48.0 KHz
Stream size : 59.5 MiB (11%)
Encoded date : UTC 2013-08-14 21:46:04
Tagged date : UTC 2013-08-14 21:53:15

Создавать темы 18-Янв-2014 20:31

[Профиль]  [ЛС] 

Big_Aziz

Стаж: 6 лет 4 месяца

Сообщений: 22

Симпатии: 1

скорость дайте

Создавать темы 09-Мар-2014 00:18

[Профиль]  [ЛС] 

Don4ik

Стаж: 4 года 5 месяцев

Сообщений: 21

Симпатии: 1

Фильм вообще класс не то что Голивудские фантастики!

Создавать темы 19-Май-2014 23:25

[Профиль]  [ЛС] 

black_angel_roman

Стаж: 4 года 4 месяца

Сообщений: 25

Симпатии: 2

блин где раздача !!!!!!!!!!!!!!!! ?????????????

Создавать темы 23-Ноя-2014 10:28

[Профиль]  [ЛС] 

Элина

Стаж: 5 лет 6 месяцев

Сообщений: 28

Симпатии: 1

дайте раздачу пожалуйста.

Создавать темы 11-Мар-2016 00:52

[Профиль]  [ЛС] 

Элина

Стаж: 5 лет 6 месяцев

Сообщений: 28

Симпатии: 1

дайте раздачу пожалуйста, скорость

Создавать темы 15-Мар-2016 19:57

[Профиль]  [ЛС] 

олег1978

Стаж: 5 лет 6 месяцев

Сообщений: 102

Симпатии: 10

скачан 108 раз,и где эти 108 сидов?

Создавать темы 29-Дек-2016 23:31

[Профиль]  [ЛС] 
Показать сообщения:    
Ответить на тему

Текущее время: 17-Авг 11:09

Часовой пояс: UTC + 5



Вы не можете начинать темы
Вы не можете отвечать на сообщения
Вы не можете редактировать свои сообщения
Вы не можете удалять свои сообщения
Вы не можете голосовать в опросах
Вы не можете прикреплять файлы к сообщениям
Вы не можете скачивать файлы