Улицы разбитых фонарей / (Сезон 1-2-3-4-5-6+7+8+9+10+ловушка + ментовской роман) / (Серии: 1-275)(Александр Рогожкин, Дмитрий Светозаров, Евгений Макаров

Страницы :  1, 2  След.

Ответить на тему
 

uzcard ®

Стаж: 3 года 10 месяцев

Сообщений: 17

Симпатии: 10

Улицы разбитых фонарей
Качество: SATRip
Год выпуска: 1997
Страна: Россия
Жанр: Боевик, Драма, Криминал, Приключения
Режиссеры: Александр Рогожкин, Дмитрий Светозаров, Евгений Макаров
Сценаристы: Андрей Кивинов, Виктор Бутурлин, Искандер Хамраев
Продюсеры: Александр Капица
В ролях: Александр Лыков, Александр Половцев, Андрей Краско, Михаил Трухин, Сергей Селин, Юрий Кузнецов, Виктор Бычков, Ирина Основина, Алексей Нилов, Борис Чердынцев
Продолжительность: 00:59:32
Сезон: 1 Серии: 1-31 из 31
Сезон: 2 Серии: 1-26 из 26
Сезон: 3 Серии: 1-26 из 26
Сезон: 4 Серии: 1-26 из 26
Сезон: 5 Серии: 1-26 из 26
Сезон: 6 Серии: 1-26 из 26
Сезон: 7 Серии: 1-24 из 24
Сезон: 8 Серии: 1-26 из 26
Сезон: 9 Серии: 1-31 из 31
Сезон: 10 Серии: 1-31 из 31
Серии: ловушка + ментовской роман
Описание:Каждый новый день — новое преступление. За каждым углом поджидает опасность. Главный козырь бандитов в бескомпромиссной криминальной бойне — страх обывателей.
Единственные, кто может бросить вызов преступникам — лишенные страха менты. Безупречная четверка вновь оказывается на грани. Каждый новый день — новый бой против бандитов…
Качество: SATRip
Формат: AVI
Видео кодек: MPEG4
Видео: 720x432, 25.000 fps, 1 102 Kbps
Аудио: Русский : AAC, 160 kb/s, 48000Hz stereo

Скриншоты

MI

General
Format : MPEG-4
Format profile : Base Media / Version 2
Codec ID : mp42
File size : 539 MiB
Duration : 59mn 32s
Overall bit rate : 1 266 Kbps
Encoded date : UTC 2013-08-21 23:49:00
Tagged date : UTC 2013-08-21 23:58:15
Writing application : HandBrake 0.9.8 2012071800
Video
ID : 1
Format : AVC
Format/Info : Advanced Video Codec
Format profile : Main@L3.0
Format settings, CABAC : Yes
Format settings, ReFrames : 4 frames
Codec ID : avc1
Codec ID/Info : Advanced Video Coding
Duration : 59mn 32s
Bit rate mode : Variable
Bit rate : 1 102 Kbps
Width : 720 pixels
Height : 432 pixels
Display aspect ratio : 1.667
Frame rate mode : Constant
Frame rate : 25.000 fps
Color space : YUV
Chroma subsampling : 4:2:0
Bit depth : 8 bits
Scan type : Progressive
Bits/(Pixel*Frame) : 0.142
Stream size : 469 MiB (87%)
Writing library : x264 core 120
Encoding settings : cabac=1 / ref=1 / deblock=1:0:0 / analyse=0x1:0x111 / me=hex / subme=2 / psy=1 / psy_rd=1.00:0.00 / mixed_ref=0 / me_range=16 / chroma_me=1 / trellis=0 / 8x8dct=0 / cqm=0 / deadzone=21,11 / fast_pskip=1 / chroma_qp_offset=0 / threads=6 / sliced_threads=0 / nr=0 / decimate=1 / interlaced=0 / bluray_compat=0 / constrained_intra=0 / bframes=3 / b_pyramid=2 / b_adapt=1 / b_bias=0 / direct=1 / weightb=1 / open_gop=0 / weightp=1 / keyint=250 / keyint_min=25 / scenecut=40 / intra_refresh=0 / rc_lookahead=10 / rc=crf / mbtree=1 / crf=20.0 / qcomp=0.60 / qpmin=3 / qpmax=69 / qpstep=4 / ip_ratio=1.40 / aq=1:1.00
Encoded date : UTC 2013-08-21 23:49:00
Tagged date : UTC 2013-08-21 23:58:15
Color primaries : BT.601-6 525, BT.1358 525, BT.1700 NTSC, SMPTE 170M
Transfer characteristics : BT.709-5, BT.1361
Matrix coefficients : BT.601-6 525, BT.1358 525, BT.1700 NTSC, SMPTE 170M
Audio
ID : 2
Format : AAC
Format/Info : Advanced Audio Codec
Format version : Version 4
Format profile : LC
Format settings, SBR : No
Codec ID : 40
Duration : 59mn 32s
Bit rate mode : Variable
Bit rate : 160 Kbps
Maximum bit rate : 208 Kbps
Channel(s) : 2 channels
Channel positions : Front: L R
Sampling rate : 48.0 KHz
Stream size : 68.1 MiB (13%)
Encoded date : UTC 2013-08-21 23:49:00
Tagged date : UTC 2013-08-21 23:58:13


Последний раз редактировалось: uzcard (2014-01-19 02:41), всего редактировалось 1 раз

Создавать темы 18-Янв-2014 20:35

[Профиль]  [ЛС] 

Rammstein

Стаж: 5 лет 3 месяца

Сообщений: 274

Симпатии: 68

ты раздать в состоянии

Создавать темы 18-Янв-2014 20:43

[Профиль]  [ЛС] 

uzcard ®

Стаж: 3 года 10 месяцев

Сообщений: 17

Симпатии: 10

davno sostayani tolko moderatori doljni odobryat

Создавать темы 18-Янв-2014 20:45

[Профиль]  [ЛС] 

begza

Стаж: 5 лет 9 месяцев

Сообщений: 36

Симпатии: 31

Чую будет золотая раздача.

Создавать темы 20-Янв-2014 00:21

[Профиль]  [ЛС] 

uzcard ®

Стаж: 3 года 10 месяцев

Сообщений: 17

Симпатии: 10

здесь не один ты модератор они тоже заболели

Создавать темы 20-Янв-2014 23:23

[Профиль]  [ЛС] 

Doocco

Стаж: 3 года 10 месяцев

Сообщений: 74

Симпатии: 4

не думаю что осилишь раздавать,нужен такой же крутой сидер, а 100ГБ жалко)

Создавать темы 25-Янв-2014 00:45

[Профиль]  [ЛС] 

Vovo4ka

Стаж: 6 лет 3 месяца

Сообщений: 160

Симпатии: 11

Спасибо.

Создавать темы 14-Фев-2014 21:42

[Профиль]  [ЛС] 

Uzel

Стаж: 6 лет 6 месяцев

Сообщений: 923

Симпатии: 53

uzcard, Раздача идет хорошо!!! Раздавайте так же.Спасибо большое за скорость!Через 4 дня скачаю)))

Создавать темы 02-Июн-2014 15:31

[Профиль]  [ЛС] 

uzcard ®

Стаж: 3 года 10 месяцев

Сообщений: 17

Симпатии: 10

очень рад помочь

Создавать темы 22-Июн-2014 00:46

[Профиль]  [ЛС] 

Lyuleshka

Стаж: 4 года 11 месяцев

Сообщений: 6

Кто скачал встаньте на раздачу плизззз

Создавать темы 16-Июл-2014 11:16

[Профиль]  [ЛС] 

фазилов

Стаж: 3 года 8 месяцев

Сообщений: 310

Симпатии: 344

Попробую качнуть.uzcard, заранее спасибо за труд!!! bs bs bs Жаль кнопку "спасибо" так и не вернули.

Создавать темы 05-Авг-2014 16:12

[Профиль]  [ЛС] 

фазилов

Стаж: 3 года 8 месяцев

Сообщений: 310

Симпатии: 344

Сразу лёд тронулся.Хорошая раздача. Спасибо uzcard,

Создавать темы 05-Авг-2014 21:32

[Профиль]  [ЛС] 

фазилов

Стаж: 3 года 8 месяцев

Сообщений: 310

Симпатии: 344

Месяц качаю. Осталось 5,9%. застопорился. Дайте уж докачать
Уф!!! Спасибо-докачал. mb

Создавать темы 05-Сен-2014 11:39

[Профиль]  [ЛС] 

nyted

Стаж: 5 лет 6 месяцев

Сообщений: 33

Симпатии: 9

Люди скорости дайте\,а то до нового года качать буду

Создавать темы 08-Окт-2014 08:48

[Профиль]  [ЛС] 

nyted

Стаж: 5 лет 6 месяцев

Сообщений: 33

Симпатии: 9

не качайте этот сериал,скорости вообще нет.Два года будете качать.Его нереально скачать.

Создавать темы 08-Ноя-2014 07:56

[Профиль]  [ЛС] 
Показать сообщения:    
Ответить на тему

Текущее время: 21-Окт 04:19

Часовой пояс: UTC + 5



Вы не можете начинать темы
Вы не можете отвечать на сообщения
Вы не можете редактировать свои сообщения
Вы не можете удалять свои сообщения
Вы не можете голосовать в опросах
Вы не можете прикреплять файлы к сообщениям
Вы не можете скачивать файлы