Убойная сила / (Сезон 1-2-3-4-5-6) / (Серии: 1-57) (Виктор Бутурлин, Евгений Аксенов, Сергей Снежкин) [2000 г., Боевик, Детектив, Комедия, Криминал, SATRip]

Страницы :  1, 2  След.

Ответить на тему
 

uzcard ®

Стаж: 4 года

Сообщений: 17

Симпатии: 10

Убойная сила
Год выпуска: 2000
Страна: Россия
Жанр: Боевик, Детектив, Комедия, Криминал
Режиссеры: Виктор Бутурлин, Евгений Аксенов, Сергей Снежкин
Сценаристы: Андрей Кивинов, Олег Дудинцев
Продюсеры: Анатолий Максимов, Константин Эрнст
В ролях: Александр Половцев, Андрей Ургант, Андрей Федорцов, Игорь Лифанов, Константин Хабенский, Михаил Трухин, Сергей Селин, Евгений Леонов-Гладышев, Алексей Нилов, Николай Лавров
Продолжительность: 00:54:56
Сезон: 1 Серии: 1-9 из 9
Сезон: 2 Серии: 1-11 из 11
Сезон: 3 Серии: 1-10 из 10
Сезон: 4 Серии: 1-6 из 6
Сезон: 5 Серии: 1-9 из 9
Сезон: 6 Серии: 1-12 из 12
Описание: Детективный сериал о буднях двух питерских отделов по расследованию преступлений, снятый по рассказам Андрея Кивинова.
Качество: SATRip
Формат: AVI
Видео кодек: MPEG4
Видео: 640x384, 25.000 fps, 880 Kbps
Аудио: Русский : AAC, 160 kb/s, 48000Hz stereo

Скриншоты

MI

General
Format : MPEG-4
Format profile : Base Media / Version 2
Codec ID : mp42
File size : 409 MiB
Duration : 54mn 46s
Overall bit rate : 1 044 Kbps
Encoded date : UTC 2013-09-17 10:17:13
Tagged date : UTC 2013-09-17 10:22:46
Writing application : HandBrake 0.9.9 2013051800
Video
ID : 1
Format : AVC
Format/Info : Advanced Video Codec
Format profile : [email protected]
Format settings, CABAC : Yes
Format settings, ReFrames : 4 frames
Codec ID : avc1
Codec ID/Info : Advanced Video Coding
Duration : 54mn 46s
Bit rate mode : Variable
Bit rate : 880 Kbps
Width : 640 pixels
Height : 384 pixels
Display aspect ratio : 1.667
Frame rate mode : Constant
Frame rate : 25.000 fps
Color space : YUV
Chroma subsampling : 4:2:0
Bit depth : 8 bits
Scan type : Progressive
Bits/(Pixel*Frame) : 0.143
Stream size : 345 MiB (84%)
Writing library : x264 core 130 r2273 b3065e6
Encoding settings : cabac=1 / ref=1 / deblock=1:0:0 / analyse=0x1:0x111 / me=hex / subme=2 / psy=1 / psy_rd=1.00:0.00 / mixed_ref=0 / me_range=16 / chroma_me=1 / trellis=0 / 8x8dct=0 / cqm=0 / deadzone=21,11 / fast_pskip=1 / chroma_qp_offset=0 / threads=18 / lookahead_threads=3 / sliced_threads=0 / nr=0 / decimate=1 / interlaced=0 / bluray_compat=0 / constrained_intra=0 / bframes=3 / b_pyramid=2 / b_adapt=1 / b_bias=0 / direct=1 / weightb=1 / open_gop=0 / weightp=1 / keyint=250 / keyint_min=25 / scenecut=40 / intra_refresh=0 / rc_lookahead=10 / rc=crf / mbtree=1 / crf=20.0 / qcomp=0.60 / qpmin=0 / qpmax=69 / qpstep=4 / vbv_maxrate=20000 / vbv_bufsize=25000 / crf_max=0.0 / nal_hrd=none / ip_ratio=1.40 / aq=1:1.00
Encoded date : UTC 2013-09-17 10:17:13
Tagged date : UTC 2013-09-17 10:22:46
Color primaries : BT.470-6 System B, BT.470-6 System G, BT.601-6 625, BT.1358 625, BT.1700 625 PAL, BT.1700 625 SECAM
Transfer characteristics : BT.709-5, BT.1361
Matrix coefficients : BT.601-6 525, BT.1358 525, BT.1700 NTSC, SMPTE 170M
Audio
ID : 2
Format : AAC
Format/Info : Advanced Audio Codec
Format version : Version 4
Format profile : LC
Format settings, SBR : No
Codec ID : 40
Duration : 54mn 46s
Bit rate mode : Variable
Bit rate : 160 Kbps
Maximum bit rate : 205 Kbps
Channel(s) : 2 channels
Channel positions : Front: L R
Sampling rate : 48.0 KHz
Stream size : 62.7 MiB (15%)
Encoded date : UTC 2013-09-17 10:17:13
Tagged date : UTC 2013-09-17 10:22:44

Создавать темы 18-Янв-2014 20:37

[Профиль]  [ЛС] 

begza

Стаж: 5 лет 11 месяцев

Сообщений: 36

Симпатии: 31

Золото ему и поскорее!!!

Создавать темы 20-Янв-2014 00:19

[Профиль]  [ЛС] 

uzcard ®

Стаж: 4 года

Сообщений: 17

Симпатии: 10

tot otvet i zdes

Создавать темы 20-Янв-2014 00:27

[Профиль]  [ЛС] 

puncover

Стаж: 5 лет 1 месяц

Сообщений: 7

Пожалуйста, дайте скорости, господа.

Создавать темы 24-Янв-2014 22:11

[Профиль]  [ЛС] 

uzcard ®

Стаж: 4 года

Сообщений: 17

Симпатии: 10

какой скорость у тебя я ограничения поставлю других сериалов.

Создавать темы 25-Янв-2014 20:41

[Профиль]  [ЛС] 

puncover

Стаж: 5 лет 1 месяц

Сообщений: 7

30-70 кб/с скорость качает от тебя, дружище.

Создавать темы 27-Янв-2014 19:18

[Профиль]  [ЛС] 

Vovo4ka

Стаж: 6 лет 5 месяцев

Сообщений: 160

Симпатии: 11

Спасибо, классный сериал.

Создавать темы 27-Янв-2014 22:27

[Профиль]  [ЛС] 

uzcard ®

Стаж: 4 года

Сообщений: 17

Симпатии: 10

puncover, ты скажи в какой день надо я только эту сериал поставлю на раздачу

Создавать темы 28-Янв-2014 01:11

[Профиль]  [ЛС] 

puncover

Стаж: 5 лет 1 месяц

Сообщений: 7

uzcard, ну если есть возможность, то в субботу или воскресенье. Заранее спасибо.

Создавать темы 29-Янв-2014 20:16

[Профиль]  [ЛС] 

uzcard ®

Стаж: 4 года

Сообщений: 17

Симпатии: 10

puncover, определись суббота или воскресения.

Создавать темы 30-Янв-2014 00:11

[Профиль]  [ЛС] 

uzcard ®

Стаж: 4 года

Сообщений: 17

Симпатии: 10

скорость 4 м/бит будет

Создавать темы 30-Янв-2014 00:13

[Профиль]  [ЛС] 

puncover

Стаж: 5 лет 1 месяц

Сообщений: 7

Давай тогда в воскресенье)

Создавать темы 30-Янв-2014 00:51

[Профиль]  [ЛС] 

uzcard ®

Стаж: 4 года

Сообщений: 17

Симпатии: 10

ок помоги отправить всем в ЛС что поставили на скачку 1

Создавать темы 30-Янв-2014 11:50

[Профиль]  [ЛС] 

Vovo4ka

Стаж: 6 лет 5 месяцев

Сообщений: 160

Симпатии: 11

uzcard, А Улицы разбитых фонарей у вас нету?

Создавать темы 06-Фев-2014 16:00

[Профиль]  [ЛС] 

uzcard ®

Стаж: 4 года

Сообщений: 17

Симпатии: 10

Vovo4ka, Улицы разбитых фонарей есть посмотри

Создавать темы 15-Фев-2014 00:21

[Профиль]  [ЛС] 
Показать сообщения:    
Ответить на тему

Текущее время: 18-Дек 08:21

Часовой пояс: UTC + 5



Вы не можете начинать темы
Вы не можете отвечать на сообщения
Вы не можете редактировать свои сообщения
Вы не можете удалять свои сообщения
Вы не можете голосовать в опросах
Вы не можете прикреплять файлы к сообщениям
Вы не можете скачивать файлы