NG: Международный аэропорт Дубай/Ultimate Airport Dubai (Сезон 1 [Полностью], Серии: 1-10 из 10) (National Geographic) [2013 г., Документальный, HDTVRip]

Ответить на тему
 

Mercuriy ®

Стаж: 6 лет 1 месяц

Сообщений: 418

Симпатии: 100

--Международный аэропорт Дубай / Ultimate Airport Dubai-(Сезон 1[Полностью], Серии: с 1-й по 10-ю из 10)--- Год выпуска: 2013
Страна: США [USA National Geographic]
Жанр: Документальный
Сезон: 1
Серии: 1-10 из 10
Продолжительность: ~ 00:45:00
Перевод: Компания [ARK TV]--Режиссер: Давид Ковард--Описание: Менее 55 лет назад на месте Международного аэропорта Дубая была огромная пустыня. Но сегодня это мекка международных воздушных перевозок. Это третий по загруженности аэропорт в мире для пассажиров международных рейсов, он принимает 344 000 рейсов, 57 млн. пассажиров и 2000 тысяч тонн грузов в год. Канал National Geographic покажет закулисную жизнь трех международных терминалов аэропорта, в том числе терминала 3 - самого большого здания на земле, его размер составляет 359 футбольных полей! Беспрецедентный доступ ко всем аспектам этого мега-центра – этот сериал показывает некоторых из 60 000 сотрудников, работающих в аэропорту. От управления воздушным движением, таможенных служб, которые перехватывают подозреваемых в контрабанде наркотиков до строительства нового терминала стоимостью 3,2 млрд. долларов, National Geographic Channel предоставляет 360 -градусный обзор этого сверхсовременного аэропорта.
--Качество: HDTVRip
Формат: AVI
Видео кодек: XviD
Аудио кодек: MP3
Видео: 720x400 (16:9), 25000 fps, ~1700 kbps avg, 0.231 bit/pixel
Аудио: 48 kHz, MPEG Layer 3, 2 ch, ~192.00 kbps avg
--

Скриншоты по одному на каждый эпизод

--

MI:

General
Format : AVI
Format/Info : Audio Video Interleave
File size : 660 MiB
Duration : 44mn 42s
Overall bit rate : 2 063 Kbps
Writing application : VirtualDubModRus 1.5.10.2 (build 2542/release)
Writing library : VirtualDubMod build 2542/release
Video #0
ID : 0
Format : MPEG-4 Visual
Format profile : Advanced [email protected]
Format settings, BVOP : 2
Format settings, QPel : No
Format settings, GMC : No warppoints
Format settings, Matrix : Default (H.263)
Codec ID : XVID
Codec ID/Hint : XviD
Duration : 44mn 42s
Bit rate : 1 665 Kbps
Width : 720 pixels
Height : 400 pixels
Display aspect ratio : 16:9
Frame rate : 25.000 fps
Color space : YUV
Chroma subsampling : 4:2:0
Bit depth : 8 bits
Scan type : Progressive
Compression mode : Lossy
Bits/(Pixel*Frame) : 0.231
Stream size : 532 MiB (81%)
Writing library : XviD 1.2.1 (UTC 2008-12-04)
Audio #1
ID : 1
Format : AC-3
Format/Info : Audio Coding 3
Mode extension : CM (complete main)
Format settings, Endianness : Big
Codec ID : 2000
Duration : 44mn 42s
Bit rate mode : Constant
Bit rate : 192 Kbps
Channel(s) : 2 channels
Channel positions : Front: L R
Sampling rate : 48.0 KHz
Bit depth : 16 bits
Compression mode : Lossy
Stream size : 61.4 MiB (9%)
Alignment : Split accross interleaves
Interleave, duration : 40 ms (1.00 video frame)
Interleave, preload duration : 500 ms
Audio #2
ID : 2
Format : AC-3
Format/Info : Audio Coding 3
Mode extension : CM (complete main)
Format settings, Endianness : Big
Codec ID : 2000
Duration : 44mn 42s
Bit rate mode : Constant
Bit rate : 192 Kbps
Channel(s) : 2 channels
Channel positions : Front: L R
Sampling rate : 48.0 KHz
Bit depth : 16 bits
Compression mode : Lossy
Stream size : 61.4 MiB (9%)
Alignment : Split accross interleaves
Interleave, duration : 40 ms (1.00 video frame)
Interleave, preload duration : 500 ms
--

Создавать темы 19-Янв-2014 00:51

[Профиль]  [ЛС] 

mirza_96

Стаж: 4 года 11 месяцев

Сообщений: 4

Встаньте на раздачу! Пожалуйста!

Создавать темы 11-Мар-2014 15:56

[Профиль]  [ЛС] 

Akmal4ik

Стаж: 4 года 11 месяцев

Сообщений: 32

Здесь с седьмой серией тоже лажа

Создавать темы 23-Мар-2014 19:07

[Профиль]  [ЛС] 

slaiderUZ

Стаж: 5 лет 11 месяцев

Сообщений: 172

Симпатии: 6

второй сезон киньте

_________________
Подпись отключена за нарушение правил форума

Создавать темы 09-Янв-2015 20:38

[Профиль]  [ЛС] 

asil773

Стаж: 5 лет 10 месяцев

Сообщений: 16

Симпатии: 2

дайте скорость ребята

Создавать темы 23-Июн-2016 00:14

[Профиль]  [ЛС] 
Показать сообщения:    
Ответить на тему

Текущее время: 18-Дек 06:29

Часовой пояс: UTC + 5



Вы не можете начинать темы
Вы не можете отвечать на сообщения
Вы не можете редактировать свои сообщения
Вы не можете удалять свои сообщения
Вы не можете голосовать в опросах
Вы не можете прикреплять файлы к сообщениям
Вы не можете скачивать файлы