Мэри и Марта / Mary and Martha (Филлип Нойс / Phillip Noyce) [2013, США, Великобритания, Драма, WEB-DLRip] DVO (Студия NLS) + Original Eng

Ответить на тему
 

Suxrob89 ®

Стаж: 7 лет

Сообщений: 933

Симпатии: 564

-Мэри и Марта / Mary and Martha- Страна: США, Великобритания
Производство: Working Title Television, HBO Films, NBC Universal Television (США, Великобритания)
Жанр: Драма
Год выпуска: 2013
Продолжительность: 01:34:55
Перевод: Профессиональный (двухголосый закадровый) Студия NLS
Cубтитры: нет-Режиссер: Филлип Нойс / Phillip Noyce-В ролях: Хилари Суонк /Hilary Swank/, Бренда Блетин /Brenda Blethyn/, Сэм Клафлин /Sam Claflin/, Фрэнк Грилло /Frank Grillo/, Люкс Хэйни-Джардин /Lux Haney-Jardine/, Бонго Мбутума /Bongo Mbutuma/, Йен Редфорд /Ian Redford/, Джеймс Вудс /James Woods/, Нокутула Ледуаба /Nokuthula Ledwaba/, Сифисо Сихлангу /Sifiso Sihlangu/-Описание: Лишившись сыновей, две совершенно разные женщины отправляются в далекую Африку, чтобы посвятить себя борьбе с ужасной болезнью, исковеркавшей их судьбы...- -Качество видео: WEB-DLRip
Формат видео: AVI
Видео: Xvid 720x400 23.976fps 1666kbps
Аудио: Dolby AC3 48000Hz stereo 192kbps [Rus]
Аудио 2: Dolby AC3 48000Hz stereo 192kbps [Eng]

Интересные факты:

В районах распространения малярии проживает 2,4 миллиарда человек, или 34 % населения мира.
Ежегодно 300—500 миллионов человек заражается малярией, и, согласно ВОЗ, это число ежегодно возрастает на 16 %. 90 % случаев регистрируется в Африке, из остальных — 70 % случаев приходится на Индию, Бразилию, Шри-Ланку, Вьетнам, Колумбию и Соломоновы Острова.
Ежегодно 1,5—3 миллиона человек умирает от малярии (в 15 раз больше, чем от СПИДа).
За последнее десятилетие с третьего места по числу смертельных случаев за год (после пневмонии и туберкулёза) малярия вышла на первое среди инфекционных заболеваний.
Каждый год около 30 000 людей, посещающих опасные районы, заболевают малярией, 1 % из них умирает.
На одну смерть от малярии приходится 65 $ на лечение и исследования в мире. Для сравнения, на одну смерть от СПИДа приходится 3400 $.

MediaInfo

Format : AVI
Format/Info : Audio Video Interleave
File size : 1.37 GiB
Duration : 1h 34mn
Overall bit rate : 2 065 Kbps
Movie name : Meri i Marta
Original source form/Distributed : Mary.And.Martha.2013.1080p.WEB-DL.H264-PublicHD
Genre : Drama
Copyright : 25KADR
Comment : DVO (NLS studio)
Video
ID : 0
Format : MPEG-4 Visual
Format profile : Advanced Simple@L5
Format settings, BVOP : Yes
Format settings, QPel : No
Format settings, GMC : No warppoints
Format settings, Matrix : Default (MPEG)
Codec ID : XVID
Codec ID/Hint : XviD
Duration : 1h 34mn
Bit rate : 1 667 Kbps
Width : 720 pixels
Height : 400 pixels
Display aspect ratio : 16:9
Frame rate : 23.976 fps
Color space : YUV
Chroma subsampling : 4:2:0
Bit depth : 8 bits
Scan type : Progressive
Bits/(Pixel*Frame) : 0.241
Stream size : 1.11 GiB (81%)
Writing library : XviD 64
Audio #1
ID : 1
Format : AC-3
Format/Info : Audio Coding 3
Mode extension : CM (complete main)
Codec ID : 2000
Duration : 1h 34mn
Bit rate mode : Constant
Bit rate : 192 Kbps
Channel(s) : 2 channels
Channel positions : Front: L R
Sampling rate : 48.0 KHz
Bit depth : 16 bits
Stream size : 130 MiB (9%)
Alignment : Split accross interleaves
Interleave, duration : 42 ms (1.00 video frame)
Interleave, preload duration : 500 ms
Language : Russian
Audio #2
ID : 2
Format : AC-3
Format/Info : Audio Coding 3
Mode extension : CM (complete main)
Codec ID : 2000
Duration : 1h 34mn
Bit rate mode : Constant
Bit rate : 192 Kbps
Channel(s) : 2 channels
Channel positions : Front: L R
Sampling rate : 48.0 KHz
Bit depth : 16 bits
Stream size : 130 MiB (9%)
Alignment : Split accross interleaves
Interleave, duration : 42 ms (1.00 video frame)
Interleave, preload duration : 500 ms

Скриншоты

Создавать темы 19-Янв-2014 15:34

[Профиль]  [ЛС] 
Показать сообщения:    
Ответить на тему

Текущее время: 22-Авг 19:45

Часовой пояс: UTC + 5



Вы не можете начинать темы
Вы не можете отвечать на сообщения
Вы не можете редактировать свои сообщения
Вы не можете удалять свои сообщения
Вы не можете голосовать в опросах
Вы не можете прикреплять файлы к сообщениям
Вы не можете скачивать файлы