Меч (01-25 из 25) (Рустам Уразаев) [2009 г., Боевик, DVDRip]

Страницы :  1, 2  След.

Ответить на тему
 

uzcard ®

Стаж: 3 года 9 месяцев

Сообщений: 17

Симпатии: 10

Оригинальное название: Меч
Год выпуска: 2009
Жанр: Боевик
Выпущено: Россия
Режиссер: Рустам Уразаев
В ролях: Эдуард Флеров, Роман Курцын, Тимур Ефременков, Дарья Повереннова, Виктория Фишер
Качество: DVDRip
Видео: XviD, ~ 1448 Кбит/с, 704x400
Аудио: MP3, 2 ch, 128 Кбит/с
Размер: 12.9 ГБ
Продолжительность: 25 x ~ 00:47:55
Язык: Русский
Файлы: 25 файлов
О фильме: Максу Калинину 35 лет, он бывший офицер разведки ВДВ, оперативник УБОП. После 10 лет работы его увольняют со службы по фиктивному обвинению, без права в дальнейшем работать в органах правопорядка, а опасный преступник выходит на свободу без предъявления обвинения. Это Калинин не может простить. Проследив за отпущенным на свободу преступником, Калинин в тот же вечер вершит собственное правосудие, убивая его. С этого дня Калинин понимает, чем он будет заниматься, - он будет бороться с беззаконием своими методами. И ЗАКОН у него будет свой... И НАКАЗАНИЕ только одно – смерть... Калинин собирает команду из таких же как и он. Преступные деньги, которыми удается завладеть, бойцы оставляют себе и постепенно маленькая команда, превращается в опасную карательную организацию, которую бояться все и теперь они находятся между двух зол – криминального мира, который объявляет огромные деньги за их «головы» и своих бывших коллег, которые начинают охоту на «оборотней»...

Скриншоты

MI

General
Format : AVI
Format/Info : Audio Video Interleave
File size : 546 MiB
Duration : 48mn 10s
Overall bit rate : 1 586 Kbps
Writing application : VirtualDubMod 1.5.10.2 (build 2540/release)
Writing library : VirtualDubMod build 2540/release
Video
ID : 0
Format : MPEG-4 Visual
Format profile : Advanced [email protected]
Format settings, BVOP : Yes
Format settings, QPel : No
Format settings, GMC : No warppoints
Format settings, Matrix : Default (MPEG)
Codec ID : XVID
Codec ID/Hint : XviD
Duration : 48mn 10s
Bit rate : 1 448 Kbps
Width : 704 pixels
Height : 400 pixels
Display aspect ratio : 16:9
Frame rate : 25.000 fps
Color space : YUV
Chroma subsampling : 4:2:0
Bit depth : 8 bits
Scan type : Progressive
Bits/(Pixel*Frame) : 0.206
Stream size : 499 MiB (91%)
Writing library : XviD 1.2.1 (UTC 2008-12-04)
Audio
ID : 1
Format : MPEG Audio
Format version : Version 1
Format profile : Layer 3
Codec ID : 55
Codec ID/Hint : MP3
Duration : 48mn 10s
Bit rate mode : Constant
Bit rate : 128 Kbps
Channel(s) : 2 channels
Sampling rate : 48.0 KHz
Stream size : 44.1 MiB (8%)
Alignment : Aligned on interleaves
Interleave, duration : 40 ms (1.00 video frame)
Interleave, preload duration : 504 ms
Writing library : LAME3.98r
Encoding settings : -m s -V 4 -q 2 -lowpass 17 -b 128

Создавать темы 19-Янв-2014 21:36

[Профиль]  [ЛС] 

olgakuz1988

Стаж: 3 года 9 месяцев

Сообщений: 9

ааааафигенный сериал...советую посмотреть

Создавать темы 24-Янв-2014 17:42

[Профиль]  [ЛС] 

alexcash78

Стаж: 4 года 10 месяцев

Сообщений: 31

Симпатии: 2

760219ааааафигенный сериал...советую посмотреть
Спасибо, поверю вам на слово и скачаю mb

Создавать темы 16-Фев-2014 02:13

[Профиль]  [ЛС] 

Arsenal97

Стаж: 4 года 5 месяцев

Сообщений: 60

Оп па давно искал     

Создавать темы 19-Фев-2014 11:33

[Профиль]  [ЛС] 

alexcash78

Стаж: 4 года 10 месяцев

Сообщений: 31

Симпатии: 2

Спасибо огромное сидирующим, особо благодарен alesya71, за высокую скорость отдачи.

Создавать темы 20-Фев-2014 08:40

[Профиль]  [ЛС] 

Panterajon

Стаж: 7 лет

Сообщений: 2

Кто может скачать отсюда Меч 2 сезон http://mech.net.ua/

Создавать темы 14-Апр-2014 17:27

[Профиль]  [ЛС] 

Babit

Стаж: 3 года 11 месяцев

Сообщений: 70

Симпатии: 18

812317Кто может скачать отсюда Меч 2 сезон http://mech.net.ua/
Меч 2 сезон нетууууу

Создавать темы 16-Апр-2014 13:28

[Профиль]  [ЛС] 

xek

Стаж: 6 лет 8 месяцев

Сообщений: 5

813483
812317Кто может скачать отсюда Меч 2 сезон http://mech.net.ua/
Меч 2 сезон нетууууу
Ребят 2-й сезон планировали но всё таки не сняли, так что нЭтУ cb

Создавать темы 16-Апр-2014 13:47

[Профиль]  [ЛС] 

илюша

Стаж: 6 лет 7 месяцев

Сообщений: 39

Симпатии: 1

почему нет скорости

Создавать темы 24-Апр-2014 10:55

[Профиль]  [ЛС] 

tibob

Стаж: 5 лет 7 месяцев

Сообщений: 3

Сериал ааафигенный, но помогите со скачкой, плииз..

Создавать темы 22-Июн-2014 15:52

[Профиль]  [ЛС] 

coolio

Стаж: 4 года 3 месяца

Сообщений: 3

меч сериал есть 25-50 50-75 только надо скачать ссылку напишу.

Создавать темы 28-Июн-2014 17:05

[Профиль]  [ЛС] 

pokofono

Стаж: 5 лет 5 месяцев

Сообщений: 6

Съёмки 2 сезона начнутся в начале августа , так что любители сериала ждите

Создавать темы 01-Авг-2014 13:16

[Профиль]  [ЛС] 

илюша

Стаж: 6 лет 7 месяцев

Сообщений: 39

Симпатии: 1

с нетерпением ждем- спасибо

Создавать темы 02-Авг-2014 08:52

[Профиль]  [ЛС] 

Michel

Стаж: 6 лет 9 месяцев

Сообщений: 78

Симпатии: 5

860915Съёмки 2 сезона начнутся в начале августа , так что любители сериала ждите
Что слышно?
849061меч сериал есть 25-50 50-75 только надо скачать ссылку напишу.
Ну и хде ссылка?

Создавать темы 25-Дек-2014 16:05

[Профиль]  [ЛС] 

pokofono

Стаж: 5 лет 5 месяцев

Сообщений: 6

905222
860915Съёмки 2 сезона начнутся в начале августа , так что любители сериала ждите
Что слышно?
Вот ссылка на трейлер 2 сезона который выйдет весной 2015

Создавать темы 10-Янв-2015 01:40

[Профиль]  [ЛС] 
Показать сообщения:    
Ответить на тему

Текущее время: 22-Сен 02:17

Часовой пояс: UTC + 5



Вы не можете начинать темы
Вы не можете отвечать на сообщения
Вы не можете редактировать свои сообщения
Вы не можете удалять свои сообщения
Вы не можете голосовать в опросах
Вы не можете прикреплять файлы к сообщениям
Вы не можете скачивать файлы