Честь дракона 2 / Tom yum goong 2 (Прачья Пинкаю) [2013г., боевик, DVDRip]

Ответить на тему
 

Каротажник ®

Стаж: 3 года 10 месяцев

Сообщений: 195

Симпатии: 211

Честь дракона 2 / Tom yum goong 2- -
Год выпуска: 2013
Страна: Таиланд
Жанр: Боевик
Продолжительность: 01:40:06
Перевод: Любительский (одноголосый) [Zelesk]
Режиссёр: Прачья Пинкаю
В ролях: Тони Джа, Маррезе Крамп, Йанин Висмитананда, Винс Макилинг, Уджал Тхапа, Эдди Руис, Эдгар Варгас, Джон Данг, Джавед Эль Берни, Рэйден Интегра

Влиятельного владельца слоновьего заповедника Сучарта убивает неизвестный эксперт по боевым искусствам, использовавший три удара по смертельным для жизни точкам, и Кхам становится основным подозреваемым в убийстве, так как он был последним, кого видели на месте преступления. Ему пришлось бежать от властей, тем временем за ним начали охоту двойняшки — племянницы Сучарта. К счастью, его выручил сержант Марк, агент Интерпола, присланный из Сиднея для выполнения некоего секретного задания. Хоть Кхам всё ещё в розыске, сам он пытается отыскать Кхона, слона, похищенного несколько дней назад, к которому относится как к собственному брату. Чем дольше он находится в бегах, там сильнее им начинает интересоваться тайная организация под предводительством криминального авторитета LZ. Тот создал собственное секретное коллекционное «стойло», которое пополняет бойцами со всего мира. Его бойцы, «Двадцатая» и «Второй», намерены поймать Кхама, чтобы удовлетворить желания своего босса.

 


Качество: DVDRip
Формат: AVI
Видео: XviD ,1629 kb/s, 720x304
Аудио: Russian: MP3, 128 kb/s (2 ch) / English: MP3, 192 kb/s (2 ch)

Media Info

Format : AVI
Format/Info : Audio Video Interleave
File size : 1.37 GiB
Duration : 1h 40mn
Overall bit rate : 1 965 Kbps
Writing application : VirtualDubMod 1.5.10.2 (build 2540/release)
Writing library : VirtualDubMod build 2540/release
Video #0
ID : 0
Format : MPEG-4 Visual
Format profile : Advanced [email protected]
Format settings, BVOP : 1
Format settings, QPel : No
Format settings, GMC : No warppoints
Format settings, Matrix : Custom
Codec ID : XVID
Codec ID/Hint : XviD
Duration : 1h 40mn
Bit rate : 1 631 Kbps
Width : 720 pixels
Height : 304 pixels
Display aspect ratio : 2.35:1
Frame rate : 25.000 fps
Color space : YUV
Chroma subsampling : 4:2:0
Bit depth : 8 bits
Scan type : Progressive
Compression mode : Lossy
Bits/(Pixel*Frame) : 0.298
Stream size : 1.14 GiB (83%)
Writing library : XviD 1.2.0SMP (UTC 2006-01-08)
Audio #1
ID : 1
Format : MPEG Audio
Format version : Version 1
Format profile : Layer 3
Mode : Joint stereo
Mode extension : MS Stereo
Codec ID : 55
Codec ID/Hint : MP3
Duration : 1h 40mn
Bit rate mode : Constant
Bit rate : 128 Kbps
Channel(s) : 2 channels
Sampling rate : 48.0 KHz
Compression mode : Lossy
Stream size : 91.6 MiB (7%)
Alignment : Aligned on interleaves
Interleave, duration : 40 ms (1.00 video frame)
Interleave, preload duration : 504 ms
Audio #2
ID : 2
Format : MPEG Audio
Format version : Version 1
Format profile : Layer 3
Mode : Joint stereo
Mode extension : MS Stereo
Codec ID : 55
Codec ID/Hint : MP3
Duration : 1h 40mn
Bit rate mode : Constant
Bit rate : 192 Kbps
Channel(s) : 2 channels
Sampling rate : 48.0 KHz
Compression mode : Lossy
Stream size : 137 MiB (10%)
Alignment : Aligned on interleaves
Interleave, duration : 40 ms (1.00 video frame)
Interleave, preload duration : 504 ms
Writing library : LAME3.99r
Encoding settings : -m j -V 4 -q 7 -lowpass 18.6 -b 192

Скриншоты






Последний раз редактировалось: Каротажник (2014-01-20 12:18), всего редактировалось 3 раз(а)

Создавать темы 20-Янв-2014 11:28

[Профиль]  [ЛС] 

Каротажник ®

Стаж: 3 года 10 месяцев

Сообщений: 195

Симпатии: 211

Создавать темы 20-Янв-2014 11:29

[Профиль]  [ЛС] 

TinTin

Стаж: 4 года 2 месяца

Сообщений: 25

жалко на первую часть нету сидеров (
а то не интересно смотреть сразу с продолжения.

Создавать темы 20-Янв-2014 11:52

[Профиль]  [ЛС] 

Топик был перенесен из форума Фильмы за 2013 в форум Азиатские фильмы

Иви

Создавать темы 20-Янв-2014 12:13

 

Sinema_uz

Стаж: 6 лет 7 месяцев

Сообщений: 303

Симпатии: 4

а звук в конце не опаздывает!!!!!!

Создавать темы 20-Янв-2014 22:00

[Профиль]  [ЛС] 

Sinema_uz

Стаж: 6 лет 7 месяцев

Сообщений: 303

Симпатии: 4

ЗВУК ЧЕОТА НЕ СОВПАДАЕТ ПОСЛЕ 1ЧАС 20МИНУТ

Создавать темы 21-Янв-2014 17:37

[Профиль]  [ЛС] 

gazli2012

Стаж: 4 года 9 месяцев

Сообщений: 3

Симпатии: 1

максимально отстойный фильм, первая часть намного лучше была

Создавать темы 29-Янв-2014 08:27

[Профиль]  [ЛС] 

Michael Jackson

Стаж: 6 лет 7 месяцев

Сообщений: 13

Симпатии: 1

люди дайте скачать

Создавать темы 08-Фев-2014 11:48

[Профиль]  [ЛС] 

jamik123

Стаж: 4 года 5 месяцев

Сообщений: 2

В первой части Тони Джаа был намного быстрее и энергичнее...и все мы полюбили его за это...он показал миру что такое Таиландское боевое искусство...
...но увы и ах, во второой части сплошные, дешёвые спецеффекты...лучше не надо было снимать продолжение...

Создавать темы 12-Фев-2014 10:56

[Профиль]  [ЛС] 
Показать сообщения:    
Ответить на тему

Текущее время: 17-Авг 16:30

Часовой пояс: UTC + 5



Вы не можете начинать темы
Вы не можете отвечать на сообщения
Вы не можете редактировать свои сообщения
Вы не можете удалять свои сообщения
Вы не можете голосовать в опросах
Вы не можете прикреплять файлы к сообщениям
Вы не можете скачивать файлы