Буйство цветов: Самурай невеста / Hyakka Ryouran Samurai Bride (Сидзуно Кобун) [TV] [без хардсаба] [12 из 12] [RUS(ext),JAP+SUB] [2013 г., приключения, боевые искусства, комедия, гарем, этти, BDRip] [720p]

Ответить на тему
 

MeiDoCorpse ®

Стаж: 4 года 5 месяцев

Сообщений: 222

Симпатии: 14

- Год выпуска: 2013
Страна: Япония
Жанр: приключения, боевые искусства, комедия, гарем, этти
Продолжительность: ТВ | 12 эп. по 25 мин.-Режиссёр: Сидзуно Кобун
Автор оригинала: Судзуки Акира
Студия: Arms-Описание:
Молодой воин Мунэакира вместе с подругой детства принцессой Сэн, бунтовщицей Юкимурой и таинственной Дзюбэй спасли Великую Японию от возрождения жуткого чернокнижника Сиро Амакусы. Помогли не сколько фамильные приемы школы Ягю, сколько способность парня своим поцелуем превращать любую девушку в грозного мастера-самурая. Увы, как часто бывает, всю славу присвоил себе Ёсихико, старший брат Сэн и наследник сегуната, а веселой компании было приказано сидеть в академии Буо и не отсвечивать. В итоге, награда героев не нашла, финансы поют романсы, и тут у хитроумной Юкимуры родился дерзкий бизнес-проект – превратить додзе рода Ягю в новомодное мэйд-кафе!
Между тем, под шумок борьбы с Амакусой неведомые силы вернули к жизни четверку великих самураев прошлого, которые не были врагами Токугава, но и большой любви к правящему дому не испытывали. Первым делом им было велено отправиться в Буо и разобраться, кто такая Дзюбэй Ягю. Сказано – сделано: четверка во главе с Миямото Мусаси как раз успевает к открытию мэйд-кафе «Новая Тень», чуть позже туда подтягиваются малышка Сасукэ и байкерша Маэда, а что дальше – сами догадаетесь!
© Hollow, World Art-Cсылки: Официальная страница || AniDB || World Art || MAL-Качество: BDRip
Энкод: Winter
Контейнер: mkv
Тип видео: Без хардсаба
Наличие линковки: Нет
Видео: x264 (Hi10p), 1280x720, ~3900 Kbps, 23.976 fps
Аудио: Japanese, Vorbis, 48000Hz, ~256 Kbps, 2ch, в составе контейнера
Аудио: Russian, AC3, 48000Hz, ~192 Kbps, 2ch, внешними файлами | двухголосая от Zendos & Eladiel
Субтитры: Russian, ASS, внешними файлами | перевод от YakuSub Studio-

Список эпизодов

01. True Shadow, Now Open
02. Kiss Again
03. Love and Kiss
04. Samurai Bride
05. Supremacy of the Underwold
06. The Reputed Dandy
07. Unable to Unlock!
08. The Mysterious Shadow
09. The New Master Samurai
10. The Secret of the Chingo Stone
11. The Showdown
12. Samurai Bride Is Born

Скриншоты

Подробные тех. данные

General
Unique ID : 216090605655142806612997708561722887874 (0xA291896C9707C5DEA552B65FD7ABCEC2)
Complete name : E:\Hyakka Ryouran Samurai Bride [BD] [720p]\[Winter] Hyakka Ryouran Samurai Bride 01 [BDrip 1280x720 x264 Vorbis].mkv
Format : Matroska
Format version : Version 2
File size : 746 MiB
Duration : 23mn 42s
Overall bit rate mode : Variable
Overall bit rate : 4 398 Kbps
Encoded date : UTC 2013-06-29 09:08:33
Writing application : mkvmerge v2.9.8 ('C'est le bon') built on Aug 13 2009 12:49:06
Writing library : libebml v0.7.7 + libmatroska v0.8.1
Video
ID : 1
Format : AVC
Format/Info : Advanced Video Codec
Format profile : High 10@L4.1
Format settings, CABAC : Yes
Format settings, ReFrames : 9 frames
Codec ID : V_MPEG4/ISO/AVC
Duration : 23mn 42s
Bit rate : 4 054 Kbps
Width : 1 280 pixels
Height : 720 pixels
Display aspect ratio : 16:9
Frame rate mode : Constant
Frame rate : 23.976 fps
Color space : YUV
Chroma subsampling : 4:2:0
Bit depth : 10 bits
Scan type : Progressive
Bits/(Pixel*Frame) : 0.183
Stream size : 687 MiB (92%)
Writing library : x264 core 125 r2200 999b753
Encoding settings : cabac=1 / ref=9 / deblock=1:-2:-2 / analyse=0x3:0x133 / me=umh / subme=9 / psy=1 / psy_rd=0.90:0.00 / mixed_ref=1 / me_range=24 / chroma_me=1 / trellis=2 / 8x8dct=1 / cqm=0 / deadzone=21,11 / fast_pskip=1 / chroma_qp_offset=-2 / threads=6 / lookahead_threads=1 / sliced_threads=0 / nr=0 / decimate=0 / interlaced=0 / bluray_compat=0 / constrained_intra=0 / bframes=8 / b_pyramid=2 / b_adapt=2 / b_bias=0 / direct=1 / weightb=1 / open_gop=0 / weightp=2 / keyint=250 / keyint_min=23 / scenecut=40 / intra_refresh=0 / rc=crf / mbtree=0 / crf=15.8 / qcomp=0.70 / qpmin=9 / qpmax=40 / qpstep=4 / ip_ratio=1.40 / pb_ratio=1.30 / aq=1:0.90
Default : No
Forced : No
Audio
ID : 2
Format : Vorbis
Format settings, Floor : 1
Codec ID : A_VORBIS
Duration : 23mn 42s
Bit rate mode : Variable
Bit rate : 256 Kbps
Channel count : 2 channels
Sampling rate : 48.0 KHz
Compression mode : Lossy
Stream size : 43.4 MiB (6%)
Writing library : libVorbis (Schaufenugget) (20101101 (Schaufenugget))
Language : Japanese
Default : Yes
Forced : No
Первый сезон


Последний раз редактировалось: MeiDoCorpse (2014-02-18 18:42), всего редактировалось 1 раз

Создавать темы 20-Янв-2014 15:10

[Профиль]  [ЛС] 

Валерка

Стаж: 5 лет 5 месяцев

Сообщений: 7

Симпатии: 1

Оо спасибо за релиз)
Рисовка у анимешки прикольная))

Создавать темы 20-Янв-2014 22:53

[Профиль]  [ЛС] 

veniamin

Стаж: 7 лет

Сообщений: 36

Симпатии: 1

Мм.. а как вставить озвучку?

Создавать темы 11-Апр-2014 20:10

[Профиль]  [ЛС] 

LikeSmile

Стаж: 4 года 5 месяцев

Сообщений: 298

Симпатии: 48

veniamin, скопируй из папки RUS Sound [Zendos & Eladiel] в папку с аниме, затем переключи озвучку в плеере

Создавать темы 11-Апр-2014 20:16

[Профиль]  [ЛС] 

Alex_38

Стаж: 5 лет 7 месяцев

Сообщений: 336

Симпатии: 37

veniamin, Cкопируйте звуковые дорожки в папку с видео файлами и переключите в проигрывателе.

Скрин с MPC (С другого аниме)

Создавать темы 11-Апр-2014 20:26

[Профиль]  [ЛС] 

mihey

Стаж: 5 лет 6 месяцев

Сообщений: 14

Симпатии: 1

Дайте до качать, на отметке 99,0% уже неделю жду

Создавать темы 14-Май-2014 00:21

[Профиль]  [ЛС] 

CTAPu4OK

Стаж: 6 лет 8 месяцев

Сообщений: 28

Встаньте на раздачу :(

Создавать темы 04-Авг-2015 21:11

[Профиль]  [ЛС] 
Показать сообщения:    
Ответить на тему

Текущее время: 23-Окт 09:27

Часовой пояс: UTC + 5



Вы не можете начинать темы
Вы не можете отвечать на сообщения
Вы не можете редактировать свои сообщения
Вы не можете удалять свои сообщения
Вы не можете голосовать в опросах
Вы не можете прикреплять файлы к сообщениям
Вы не можете скачивать файлы