Капитан Филлипс / Captain Phillips (Пол Гринграсс) [2013 г., Боевик, триллер, драма, BDRip] (Лицензия)

Ответить на тему
 

Suxrob89 ®

Стаж: 7 лет 1 месяц

Сообщений: 933

Симпатии: 564

- -Капитан Филлипс / Captain Phillips- Страна: США, Michael De Luca Productions, Scott Rudin Productions, Translux, Trigger Street Productions
Жанр: триллер, драма, криминал, боевик
Год выпуска: 2013
Продолжительность: 02:14:03
Перевод: Дублированный (Лицензия)-Режиссер: Пол Гринграсс / Paul Greengrass-В ролях: Том Хэнкс, Баркхад Абди, Баркхад Абдирахман, Файсал Ахмед, Махат М. Али, Майкл Чернус, Кэтрин Кинер, Дэвид Уоршофски, Кори Джонсон, Крис Малки, Юл Васкез, Макс Мартин-Описание: В начале апреля 2009 года, близ берегов Африки, несколько сомалийских пиратов атакуют и пытаются захватить массивный контейнеровоз MV Maersk Alabama. Команда корабля активно сопротивляется и в конце концов не даёт взять себя в плен. Захватчики вынуждены ретироваться и покинуть судно на небольшом катере, прихватив с собой немолодого капитана Ричарда Филлипса...-Дата мировой премьеры: 27 сентября 2013,
Дата российской премьеры: 5 декабря 2013, «WDSSPR»
Дата выхода DVD релиза: 11 марта 2014, «Columbia/Sony»- -Качество: BDRip
Формат: MKV
Видео кодек: AVC
Аудио кодек: AC3, DTS
Видео: AVC, 7000 Кбит/с, 1280x536, 23.976 fps
Аудио 1: Русский Dolby AC3, 48kHz, 6ch, 448kbps
Аудио 2: Английский DTS, 6 ch, 1510 Кбит/с, 48.0 KHz

MediaInfo

E:\Captain.Phillips.2013.D.Blu-Ray.720p.mkv
General
Unique ID : 171796596489232801915873943759848746529 (0x813ED229ED18E9ADAFF97F4B0C802E21)
Complete name : E:\Captain.Phillips.2013.D.Blu-Ray.720p.mkv
Format : Matroska
Format version : Version 4 / Version 2
File size : 8.39 GiB
Duration : 2h 14mn
Overall bit rate : 8 961 Kbps
Movie name : Captain.Phillips.2013.BluRay.1080p.DTS.x264-CHD
Encoded date : UTC 2014-02-11 10:52:42
Writing application : mkvmerge v6.3.0 ('You can't stop me!') built on Jun 28 2013 20:09:41
Writing library : libebml v1.3.0 + libmatroska v1.4.0
Video #1
ID : 1
Format : AVC
Format/Info : Advanced Video Codec
Format profile : [email protected]
Format settings, CABAC : Yes
Format settings, ReFrames : 12 frames
Codec ID : V_MPEG4/ISO/AVC
Duration : 2h 14mn
Bit rate : 7 000 Kbps
Width : 1 280 pixels
Height : 536 pixels
Display aspect ratio : 2.40:1
Frame rate mode : Constant
Frame rate : 23.976 fps
Color space : YUV
Chroma subsampling : 4:2:0
Bit depth : 8 bits
Scan type : Progressive
Bits/(Pixel*Frame) : 0.426
Stream size : 6.39 GiB (76%)
Writing library : x264 core 140 r2377+40 929f149 tMod [[email protected]:2:0 X86_64]
Encoding settings : cabac=1 / ref=12 / deblock=1:-3:-3 / analyse=0x3:0x113 / me=umh / subme=10 / psy=1 / fade_compensate=0.00 / psy_rd=1.10:0.00 / mixed_ref=1 / me_range=32 / chroma_me=1 / trellis=2 / 8x8dct=1 / cqm=0 / deadzone=21,11 / fast_pskip=0 / chroma_qp_offset=-2 / threads=18 / lookahead_threads=3 / sliced_threads=0 / nr=0 / decimate=0 / interlaced=0 / bluray_compat=0 / constrained_intra=0 / fgo=0 / bframes=8 / b_pyramid=2 / b_adapt=2 / b_bias=0 / direct=3 / weightb=1 / open_gop=0 / weightp=2 / keyint=240 / keyint_min=24 / scenecut=40 / intra_refresh=0 / rc=2pass / mbtree=0 / bitrate=7000 / ratetol=1.0 / qcomp=0.70 / qpmin=0:0:0 / qpmax=69:69:69 / qpstep=4 / cplxblur=20.0 / qblur=0.5 / ip_ratio=1.15 / pb_ratio=1.20 / aq=4:0.70 / aq-sensitivity=10.00 / aq-factor=1.00:1.00:1.00 / aq2=0 / aq3=0
Language : English
Default : Yes
Forced : No
Audio #2
ID : 2
Format : DTS
Format/Info : Digital Theater Systems
Mode : 16
Format settings, Endianness : Big
Codec ID : A_DTS
Duration : 2h 14mn
Bit rate mode : Constant
Bit rate : 1 509 Kbps
Channel count : 6 channels
Channel positions : Front: L C R, Side: L R, LFE
Sampling rate : 48.0 KHz
Bit depth : 24 bits
Compression mode : Lossy
Stream size : 1.41 GiB (17%)
Language : English
Default : No
Forced : No
Audio #3
ID : 3
Format : AC-3
Format/Info : Audio Coding 3
Mode extension : CM (complete main)
Format settings, Endianness : Big
Codec ID : A_AC3
Duration : 2h 14mn
Bit rate mode : Constant
Bit rate : 448 Kbps
Channel count : 6 channels
Channel positions : Front: L C R, Side: L R, LFE
Sampling rate : 48.0 KHz
Bit depth : 16 bits
Compression mode : Lossy
Stream size : 430 MiB (5%)
Default : Yes
Forced : No

Скриншоты



Последний раз редактировалось: Suxrob89 (2014-02-11 16:33), всего редактировалось 2 раз(а)

Создавать темы 20-Янв-2014 18:00

[Профиль]  [ЛС] 

Топик был перенесен из форума Зарубежное кино в форум HD-AVC

СтАсИкОс

Создавать темы 20-Янв-2014 19:11

 

gaffar

Стаж: 4 года 8 месяцев

Сообщений: 42

Симпатии: 1

фильм проста супер! Точно ОСКАР возмет!!!!!! многа-бы таких филм

Создавать темы 21-Янв-2014 00:00

[Профиль]  [ЛС] 

x6

Стаж: 6 лет 7 месяцев

Сообщений: 171

Симпатии: 3

gaffar, уже взял оскар

_________________
Подпись отключена за нарушение правил форума

Создавать темы 21-Янв-2014 19:15

[Профиль]  [ЛС] 

player546

Стаж: 4 года 1 месяц

Сообщений: 97

Симпатии: 12

gaffar, уже взял оскар
x6, Академики в курсе? Надо успеть предупредить их до второго марта. :)
Фильм номинирован в 6 категориях.

Создавать темы 21-Янв-2014 19:29

[Профиль]  [ЛС] 

MrSmirnoff

Стаж: 6 лет 7 месяцев

Сообщений: 23

Скачал 40% и уже неделю никто не встает в раздачу. Народ дайте докачать, пожалуйста. на раздачу встану сразу

Создавать темы 04-Фев-2014 19:22

[Профиль]  [ЛС] 

x6

Стаж: 6 лет 7 месяцев

Сообщений: 171

Симпатии: 3

player546, сори) спутал с золотым глобусом)

_________________
Подпись отключена за нарушение правил форума

Создавать темы 04-Фев-2014 19:36

[Профиль]  [ЛС] 

MrSmirnoff

Стаж: 6 лет 7 месяцев

Сообщений: 23

Народ почему не встаете в раздачу? Закачка стоит уже полторы недели каждый вечер и ночь на 40 %. Пожалуйста, дайте скорости?

Создавать темы 05-Фев-2014 19:12

[Профиль]  [ЛС] 

Ральф

Стаж: 3 года 10 месяцев

Сообщений: 21

Постер поменял бы что-ли.

Создавать темы 11-Фев-2014 16:16

[Профиль]  [ЛС] 

bluedragon

Стаж: 3 года 11 месяцев

Сообщений: 2

757067Капитан Филлипс / Captain Phillips (Пол Гринграсс) [2013 г., Боевик, триллер, драма, BDRip] (Лицензия)
Suxrob, gde razdacha?? bz

Создавать темы 23-Фев-2014 10:01

[Профиль]  [ЛС] 
Показать сообщения:    
Ответить на тему

Текущее время: 20-Сен 19:54

Часовой пояс: UTC + 5



Вы не можете начинать темы
Вы не можете отвечать на сообщения
Вы не можете редактировать свои сообщения
Вы не можете удалять свои сообщения
Вы не можете голосовать в опросах
Вы не можете прикреплять файлы к сообщениям
Вы не можете скачивать файлы