Silver Linings Playbook | Мой парень – псих (David O. Russell | Дэвид О. Расселл) [2012 г.; драма, мелодрама, комедия; BDRip 1080p]

Ответить на тему
 

player546 ®

Стаж: 4 года

Сообщений: 97

Симпатии: 12

Silver Linings Playbook | Мой парень – псих
Страна: США
Год выпуска: 2012
Жанр: драма, мелодрама, комедия
Продолжительность: 02:02:05
Язык: Английский
Режиссер: David O. Russell | Дэвид О. Расселл
В ролях: Брэдли Купер, Дженнифер Лоуренс, Роберт Де Ниро, Джеки Уивер, Крис Такер, Анупам Кхер, Джон Ортис, Ши Уигхэм, Джулия Стайлз, Пол Херман
Описание: Бывший школьный учитель Пэт, проведя в психиатрической больнице восемь месяцев, возвращается в родительский дом. Он одержим мыслью помириться с бывшей супругой, к которой не имеет права приближаться по решению суда. Но знакомство с эксцентричной девушкой Тиффани зажигает в Пэте луч надежды…- -Encoded by: YIFY (YIFY-Torrents Encoder Team)
Качество: BDRip
Видео: MPEG4 Video (H264) 1920x800 23.976fps 2006kbps
Аудио: AAC 48000Hz stereo 95kbps-Дополнительна информация:
Релиз подготовлен при поддержке p_vah. За что ему большое человеческое СПАСИБО!

MediaInfo

General
Complete name : Silver.Linings.Playbook.2012.1080p.x264.YIFY.mp4
Format : MPEG-4
Format profile : Base Media
Codec ID : isom
File size : 1.80 GiB
Duration : 2h 2mn
Overall bit rate mode : Variable
Overall bit rate : 2 106 Kbps
Encoded date : UTC 2013-04-02 00:48:42
Tagged date : UTC 2013-04-02 00:48:42
Video
ID : 1
Format : AVC
Format/Info : Advanced Video Codec
Format profile : [email protected]
Format settings, CABAC : Yes
Format settings, ReFrames : 5 frames
Codec ID : avc1
Codec ID/Info : Advanced Video Coding
Duration : 2h 2mn
Bit rate : 2 007 Kbps
Maximum bit rate : 8 820 Kbps
Width : 1 920 pixels
Height : 800 pixels
Display aspect ratio : 2.40:1
Frame rate mode : Constant
Frame rate : 23.976 fps
Color space : YUV
Chroma subsampling : 4:2:0
Bit depth : 8 bits
Scan type : Progressive
Bits/(Pixel*Frame) : 0.054
Stream size : 1.71 GiB (95%)
Title : linings.playbook-1080p.mkv.264#trackID=1:[email protected]
Writing library : x264 core 129 r2245 bc13772
Encoding settings : cabac=1 / ref=5 / deblock=1:-1:-1 / analyse=0x3:0x133 / me=umh / subme=9 / psy=1 / psy_rd=1.00:0.15 / mixed_ref=1 / me_range=16 / chroma_me=1 / trellis=2 / 8x8dct=1 / cqm=0 / deadzone=21,11 / fast_pskip=1 / chroma_qp_offset=-3 / threads=12 / lookahead_threads=2 / sliced_threads=0 / nr=0 / decimate=1 / interlaced=0 / bluray_compat=0 / constrained_intra=0 / bframes=3 / b_pyramid=2 / b_adapt=2 / b_bias=0 / direct=3 / weightb=1 / open_gop=0 / weightp=2 / keyint=240 / keyint_min=23 / scenecut=40 / intra_refresh=0 / rc_lookahead=60 / rc=2pass / mbtree=1 / bitrate=2007 / ratetol=1.0 / qcomp=0.60 / qpmin=0 / qpmax=69 / qpstep=4 / cplxblur=20.0 / qblur=0.5 / ip_ratio=1.40 / aq=1:1.00
Encoded date : UTC 2013-04-02 00:48:42
Tagged date : UTC 2013-04-02 00:49:00
Audio
ID : 2
Format : AAC
Format/Info : Advanced Audio Codec
Format profile : LC
Codec ID : 40
Duration : 2h 2mn
Bit rate mode : Variable
Bit rate : 96.0 Kbps
Maximum bit rate : 130 Kbps
Channel count : 2 channels
Channel positions : Front: L R
Sampling rate : 48.0 KHz
Compression mode : Lossy
Stream size : 83.8 MiB (5%)
Language : English
Encoded date : UTC 2013-04-01 20:36:19
Tagged date : UTC 2013-04-02 00:49:00

Скриншоты

Создавать темы 21-Янв-2014 07:17

[Профиль]  [ЛС] 

6(sic)6

Стаж: 4 года 5 месяцев

Сообщений: 32

Симпатии: 1

народ, дорожка с оригинальной озвучкой присутствует?

Создавать темы 25-Янв-2014 21:46

[Профиль]  [ЛС] 

6(sic)6

Стаж: 4 года 5 месяцев

Сообщений: 32

Симпатии: 1

вот я слепой

Создавать темы 25-Янв-2014 21:52

[Профиль]  [ЛС] 
Показать сообщения:    
Ответить на тему

Текущее время: 23-Авг 07:12

Часовой пояс: UTC + 5



Вы не можете начинать темы
Вы не можете отвечать на сообщения
Вы не можете редактировать свои сообщения
Вы не можете удалять свои сообщения
Вы не можете голосовать в опросах
Вы не можете прикреплять файлы к сообщениям
Вы не можете скачивать файлы