[английский] Cheri (Chéri) / Шери / Дорогуша (Stephen Frears) [2009 г., драма, мелодрама, комедия DVDRip]

Ответить на тему
 

IQBOT ®

Стаж: 6 лет 10 месяцев

Сообщений: 449

Симпатии: 81

Cheri (Chéri) / Шери / Дорогуша
Год выпуска: 2009
Жанр: драма, мелодрама, комедия
Продолжительность: 01:27:37
Режиссер: Stephen Frears / Стивен Фрирз
В ролях: Michelle Pfeiffer / Мишель Пфайффер, Rupert Friend / Руперт Френд, Kathy Bates / Кэти Бейтс, Frances Tomelty / Фрэнсис Томелти, Tom Burke / Том Бёрк, Joe Sheridan / Джор Шеридан, Felicity Jones / Фелисити Джонс …
Описание: История любви между Леа, прекрасной куртизанкой в отставке, и Шери, сыном ее старой коллеги и соперницы мадам Пелу. Леа обучает испорченного, но неопытного юнца тонкостям любви, их роман длится вот уже шесть лет, но мадам Пелу тайным образом женит Шери на дочери другой богатой куртизанки.
По мере приближения неотвратимого момента расставания, Леа и Шери пытаются примириться с разлукой, но удовольствие и легкость, связанные с любовью, уже проросли в их жизнях настолько глубоко, что только сейчас влюбленные начинают понимать, как много они значат друг для друга.
Качество: DVDRip
Формат: MKV
Видео кодек: XviD
Аудио кодек: MPEG Audio
Видео: 720x304, 1615 kbps, 25 fps
Аудио: MP3, 128 kbps, 48 kHz, 2 channels
Субтитры: utf-8, English

MediaInfo

Общее
Уникальный идентификатор : 207701247355465090467056424393881959894 (0x9C41CE2011E18870B9CE5C677AAC3DD6)
Полное имя : J:\Movies\Cheri.mkv
Формат : Matroska
Версия формата : Version 1
Размер файла : 1,09 Гбайт
Продолжительность : 1 ч. 27 м.
Общий поток : 1778 Кбит/сек
Дата кодирования : UTC 2013-01-21 02:39:51
Программа кодирования : VirtualDubMod 1.5.10.2 (build 2540/release)
Библиотека кодирования : libebml-0.7.5 & libmatroska-0.7.7
Видео
Идентификатор : 1
Формат : MPEG-4 Visual
Профиль формата : Advanced [email protected]
Параметр BVOP формата : Да
Параметр QPel формата : Нет
Параметр GMC формата : Без точки перехода
Параметр матрицы формата : Выборочная
Идентификатор кодека : XVID
Идентификатор кодека/Подсказка : XviD
Продолжительность : 1 ч. 27 м.
Битрейт : 1615 Кбит/сек
Ширина : 720 пикселей
Высота : 304 пикселя
Соотношение сторон : 2,35:1
Частота кадров : 25,000 кадров/сек
Цветовое пространство : YUV
Субдискретизация насыщенности : 4:2:0
Битовая глубина : 8 бит
Тип развёртки : Прогрессивная
Метод сжатия : С потерями
Бит/(Пиксели*Кадры) : 0.295
Размер потока : 1012 Мбайт (91%)
Библиотека кодирования : XviD 1.2.1 (UTC 2008-12-04)
Язык : English
Аудио
Идентификатор : 2
Формат : MPEG Audio
Версия формата : Version 1
Профиль формата : Layer 3
Режим : Joint stereo
Идентификатор кодека : 55
Идентификатор кодека/Подсказка : MP3
Продолжительность : 1 ч. 27 м.
Вид битрейта : Постоянный
Битрейт : 128 Кбит/сек
Каналы : 2 канала
Частота : 48,0 КГц
Метод сжатия : С потерями
Размер потока : 80,2 Мбайт (7%)
Язык : English
Текст
Идентификатор : 3
Формат : UTF-8
Идентификатор кодека : S_TEXT/UTF8
Идентификатор кодека/Информация : UTF-8 Plain Text
Язык : English

Скриншоты





В случае отсутствия на раздаче бессовестных скачавших и не раздающих пишите автору ЛС.


Последний раз редактировалось: IQBOT (2014-04-28 15:49), всего редактировалось 2 раз(а)

Создавать темы 21-Янв-2014 08:19

[Профиль]  [ЛС] 

Slowwalker

Стаж: 4 года 11 месяцев

Сообщений: 165

Симпатии: 68

Тема запретной любви всегда актуальна cb
У кого "трудности с переводом" - вот русские субтитры к фильму Вишенка (srt 2 шт.)

Создавать темы 21-Янв-2014 12:48

[Профиль]  [ЛС] 

IQBOT ®

Стаж: 6 лет 10 месяцев

Сообщений: 449

Симпатии: 81

Вишенка?!!
Французское "шери́" далеко не то же самое, что английское "чéрри", в общем-то.

Создавать темы 21-Янв-2014 17:45

[Профиль]  [ЛС] 

Mickie

Стаж: 4 года 7 месяцев

Сообщений: 83

Симпатии: 7

фильм как отпишитесь, пожалуйста!

Создавать темы 21-Янв-2014 20:36

[Профиль]  [ЛС] 
Показать сообщения:    
Ответить на тему

Текущее время: 14-Дек 05:24

Часовой пояс: UTC + 5



Вы не можете начинать темы
Вы не можете отвечать на сообщения
Вы не можете редактировать свои сообщения
Вы не можете удалять свои сообщения
Вы не можете голосовать в опросах
Вы не можете прикреплять файлы к сообщениям
Вы не можете скачивать файлы