Ешь, молись, люби / Eat Pray Love (Райан Мерфи / Ryan Murphy) [2010 г., триллер, драма, криминал, BDRip]

Ответить на тему
 

V.I.P. ®

Стаж: 3 года 7 месяцев

Сообщений: 6

Симпатии: 2

Ешь, молись, люби / Eat Pray Love
Год выпуска: 2010
Страна: США / Columbia Pictures, India Take One Productions, Plan B Entertainment
Жанр: драма, мелодрама
Продолжительность: 02:20:05
Перевод: Профессиональный (дублированный) лицензия R5
Cубтитры: русские (forced) на надписи и итальянскую речь (внешние)
Режиссер: Райан Мерфи / Ryan Murphy
В ролях: Джулия Робертс, Хавьер Бардем, Билли Крудап, Виола Дэвис, Майк О`Мэлли, Джеймс Франко, Ричард Дженкинс, Кристин Хаким, Софи Томпсон, Хади Субиянто, Эшли Эткинсон, Лиза Робертс.
Описание: Замужняя женщина Элизабет Гилберт в один прекрасный день понимает, что живёт совершенно не той жизнью, которой хотела. После болезненного развода она отправляется в путешествие по миру, которое поможет ей открыть новые горизонты и познать себя.
Качество: BDRip
Формат: AVI
Видео кодек: XviD
Аудио кодек: AC3
Видео: XviD build 65, 704x384 (1.85:1), 23.976 fps, ~1295 kbps avg, 0.20 bit/pixel
Аудио: 48 kHz, AC3 Dolby Digital, 2/0 (L,R) ch, ~192 kbps avg (Dub)
Формат субтитров: softsub (SRT)

MediaInfo

General
Complete name : D\Eat.Pray.Love.2010.Dub.BDRip.1,46Gb.XviD.AC3\Eat.Pray.Love.2010.Dub.BDRip.1,46Gb.XviD.AC3.avi
Format : AVI
Format/Info : Audio Video Interleave
File size : 1.46 GiB
Duration : 2h 20mn
Overall bit rate : 1 496 Kbps
Writing application : VirtualDubModRus 1.5.10.2 (build 2542/release)
Writing library : VirtualDubMod build 2542/release
Video
ID : 0
Format : MPEG-4 Visual
Format profile : Advanced [email protected]
Format settings, BVOP : 1
Format settings, QPel : No
Format settings, GMC : No warppoints
Format settings, Matrix : Custom
Codec ID : XVID
Codec ID/Hint : XviD
Duration : 2h 20mn
Bit rate : 1 295 Kbps
Width : 704 pixels
Height : 384 pixels
Display aspect ratio : 1.85:1
Frame rate : 23.976 fps
Color space : YUV
Chroma subsampling : 4:2:0
Bit depth : 8 bits
Scan type : Progressive
Compression mode : Lossy
Bits/(Pixel*Frame) : 0.200
Stream size : 1.27 GiB (87%)
Writing library : XviD 65
Audio
ID : 1
Format : AC-3
Format/Info : Audio Coding 3
Mode extension : CM (complete main)
Format settings, Endianness : Big
Codec ID : 2000
Duration : 2h 20mn
Bit rate mode : Constant
Bit rate : 192 Kbps
Channel(s) : 2 channels
Channel positions : Front: L R
Sampling rate : 48.0 KHz
Bit depth : 16 bits
Compression mode : Lossy
Stream size : 192 MiB (13%)
Alignment : Split accross interleaves
Interleave, duration : 42 ms (1.00 video frame)
Interleave, preload duration : 500 ms
Title : Dub

Скриншоты







Последний раз редактировалось: V.I.P. (2014-01-21 18:33), всего редактировалось 1 раз

Создавать темы 21-Янв-2014 14:33

[Профиль]  [ЛС] 

jas81

Стаж: 3 года 9 месяцев

Сообщений: 108

Симпатии: 7

Вот это классный фильм. Всем советую!

Создавать темы 21-Янв-2014 14:52

[Профиль]  [ЛС] 

victor0778

Стаж: 6 лет 6 месяцев

Сообщений: 1670

Симпатии: 142

V.I.P., шапку поправил

Создавать темы 21-Янв-2014 15:26

[Профиль]  [ЛС] 

blackshark

Стаж: 6 лет 8 месяцев

Сообщений: 260

Симпатии: 23

Книга тоже классная! Советую прочитать!

Создавать темы 21-Янв-2014 15:36

[Профиль]  [ЛС] 

V.I.P. ®

Стаж: 3 года 7 месяцев

Сообщений: 6

Симпатии: 2

V.I.P., шапку поправил
Спасибо!

Создавать темы 21-Янв-2014 17:31

[Профиль]  [ЛС] 
Показать сообщения:    
Ответить на тему

Текущее время: 22-Авг 21:56

Часовой пояс: UTC + 5



Вы не можете начинать темы
Вы не можете отвечать на сообщения
Вы не можете редактировать свои сообщения
Вы не можете удалять свои сообщения
Вы не можете голосовать в опросах
Вы не можете прикреплять файлы к сообщениям
Вы не можете скачивать файлы