План Побега / Escape Plan (Микаэль Хофстрём) [Боевик, Триллер, Детектив, HDRip] [Лицензия]

Ответить на тему
 

razor0309 ®

Стаж: 4 года

Сообщений: 13

Год Выпуска: 2013
Страна: США
Жанр: Боевик, Триллер, Детектив
Продолжительность: 01:48:00
Перевод: Профессиональный (Полное Дублирование) [Лицензия]- Режиссер: Микаэль Хофстрём
В Ролях: Сильвестр Сталлоне, Арнольд Шварценеггер, Джеймс Кэвизел, Фифти Сент, Винни Джонс, Винсент Д’Онофрио, Эми Райан, Фаран Таир, Сэм Нил, Мэтт Джералд.- Описание: Один из самых выдающихся мировых специалистов по системам безопасности соглашается на последнюю рисковую операцию: сбежать из суперсекретной высокотехнологичной тюрьмы, которую называют «Гробницей». Преданный Рэй Бреслин вынужден прибегнуть к помощи напарника — заключенного Эмиля Ротмайера, чтобы разработать отчаянный и практически неосуществимый план побега из самой защищенной тюрьмы в мире!-
Качество: HDRip
Формат: AVI
Видео Кодек: XviD
Аудио Кодек: AC3
Видео: 1600 kb/s, 720x304
Аудио: 320 kb/s (2 ch) + [Английская Дорожка]

MediaInfo

D:\My Files\Entertainment\Movie\Plan.Pobega.2013.HDTVRip.2100MB.[TAS-IX.NET].avi
General
Complete name : D:\My Files\Entertainment\Movie\Plan.Pobega.2013.HDTVRip.2100MB.[TAS-IX.NET].avi
Format : AVI
Format/Info : Audio Video Interleave
File size : 2.05 GiB
Duration : 1h 50mn
Overall bit rate : 2 652 Kbps
Writing application : VirtualDubMod 1.5.10.2 (build 2540/release)
Writing library : VirtualDubMod build 2540/release
Video #0
ID : 0
Format : MPEG-4 Visual
Format profile : Advanced [email protected]
Format settings, BVOP : 2
Format settings, QPel : No
Format settings, GMC : No warppoints
Format settings, Matrix : Custom
Codec ID : XVID
Codec ID/Hint : XviD
Duration : 1h 50mn
Bit rate : 1 896 Kbps
Width : 720 pixels
Height : 304 pixels
Display aspect ratio : 2.35:1
Frame rate : 25.000 fps
Color space : YUV
Chroma subsampling : 4:2:0
Bit depth : 8 bits
Scan type : Progressive
Compression mode : Lossy
Bits/(Pixel*Frame) : 0.347
Stream size : 1.47 GiB (72%)
Writing library : XviD 1.2.1 (UTC 2008-12-04)
Audio #1
ID : 1
Format : AC-3
Format/Info : Audio Coding 3
Format profile : Dolby Digital
Mode extension : CM (complete main)
Format settings, Endianness : Big
Codec ID : 2000
Duration : 1h 50mn
Bit rate mode : Constant
Bit rate : 320 Kbps
Channel(s) : 2 channels
Channel positions : Front: L R
Sampling rate : 48.0 KHz
Bit depth : 16 bits
Compression mode : Lossy
Stream size : 253 MiB (12%)
Alignment : Split accross interleaves
Audio #2
ID : 2
Format : MPEG Audio
Format version : Version 1
Format profile : Layer 3
Mode : Joint stereo
Codec ID : 55
Codec ID/Hint : MP3
Duration : 1h 50mn
Bit rate mode : Constant
Bit rate : 320 Kbps
Channel(s) : 2 channels
Sampling rate : 48.0 KHz
Compression mode : Lossy
Stream size : 253 MiB (12%)
Alignment : Aligned on interleaves
Writing library : LAME3.99r
Encoding settings : -m j -V 4 -q 7 -lowpass 20.5

Скриншоты



Последний раз редактировалось: razor0309 (2014-01-24 21:26), всего редактировалось 4 раз(а)

Создавать темы 22-Янв-2014 23:49

[Профиль]  [ЛС] 

razor0309 ®

Стаж: 4 года

Сообщений: 13

Это не повтор, здесь качество другое, перевод профессиональный-чистый звук а не закадровый как там.

Создавать темы 22-Янв-2014 23:54

[Профиль]  [ЛС] 

totsamiy

Стаж: 5 лет 5 месяцев

Сообщений: 145

Симпатии: 22

знающие скажите плиз - звук кинотеатральный?

Создавать темы 23-Янв-2014 00:14

[Профиль]  [ЛС] 

razor0309 ®

Стаж: 4 года

Сообщений: 13

да, из кинотеатра

Создавать темы 23-Янв-2014 00:15

[Профиль]  [ЛС] 

Feruz_22

Стаж: 6 лет 4 месяца

Сообщений: 37

Симпатии: 6

razor0309, спасибо за релиз. Присутствует ли английская звуковая дорожка,

Создавать темы 23-Янв-2014 09:30

[Профиль]  [ЛС] 

razor0309 ®

Стаж: 4 года

Сообщений: 13

razor0309, спасибо за релиз. Присутствует ли английская звуковая дорожка,
Да, присутствует.

Создавать темы 23-Янв-2014 10:27

[Профиль]  [ЛС] 

elkauther

Стаж: 5 лет 1 месяц

Сообщений: 11

А почему статус фильма как временный стоит? Получается не чистая лицензия?

Создавать темы 25-Янв-2014 13:30

[Профиль]  [ЛС] 

victor0778

Стаж: 6 лет 9 месяцев

Сообщений: 1670

Симпатии: 142

razor0309, будете править релизы после проверки модератором, будут статусы закрыто

Создавать темы 25-Янв-2014 17:46

[Профиль]  [ЛС] 

eldor_84

Стаж: 5 лет 2 месяца

Сообщений: 29

Симпатии: 1

русская озвучка тоже 2 канальная???

Создавать темы 25-Янв-2014 19:06

[Профиль]  [ЛС] 

eldor_84

Стаж: 5 лет 2 месяца

Сообщений: 29

Симпатии: 1

в рутреккере уже 6 канальная озвучка есть

Создавать темы 26-Янв-2014 04:24

[Профиль]  [ЛС] 

eldor_84

Стаж: 5 лет 2 месяца

Сообщений: 29

Симпатии: 1

но почемута неоформленная (

Создавать темы 26-Янв-2014 04:27

[Профиль]  [ЛС] 

bezdelent

Стаж: 4 года 5 месяцев

Сообщений: 20

Не знаю что там линезия - не лицензия..
Но фильм просто класс! Спасибо.

Создавать темы 27-Янв-2014 04:16

[Профиль]  [ЛС] 

victor0778

Стаж: 6 лет 9 месяцев

Сообщений: 1670

Симпатии: 142

http://tas-ix.net/viewtopic.php?t=86898

Создавать темы 27-Янв-2014 15:45

[Профиль]  [ЛС] 

markuzb

Стаж: 4 года 4 месяца

Сообщений: 2

Привет уважаемые. почему не скачивается? а другие скачиваются без проблем

Создавать темы 01-Фев-2014 19:20

[Профиль]  [ЛС] 
Показать сообщения:    
Ответить на тему

Текущее время: 18-Ноя 20:55

Часовой пояс: UTC + 5



Вы не можете начинать темы
Вы не можете отвечать на сообщения
Вы не можете редактировать свои сообщения
Вы не можете удалять свои сообщения
Вы не можете голосовать в опросах
Вы не можете прикреплять файлы к сообщениям
Вы не можете скачивать файлы