Опасные пассажиры поезда 123 / The Taking of Pelham 123 (Тони Скотт) [2009 г., Триллер, драма, криминал, BDRip]

Ответить на тему
 

Shkiper ®

Стаж: 5 лет 1 месяц

Сообщений: 79

Симпатии: 17

Опасные пассажиры поезда 123 / The Taking of Pelham 123
Год выпуска: 2009
Страна: США
Жанр: Триллер, драма, криминал
Продолжительность: 1 ч. 45 м. 55 с.
Перевод: Профессиональный (полное дублирование) + Оригинал
Режиссер: Тони Скотт
В ролях: Дензел Вашингтон, Джон Траволта, Луис Гузман, Victor Gojcaj, Джон Туртурро, Джеймс Гандольфини, Майкл Рисполи, Рамон Родригез, Сайда Аррика Экулона, Джон, Бенжамин Хикки
Описание: Вооруженные террористы захватывают поезд в нью-йоркском метро и требуют выкуп за пассажиров. Но даже если все их требования будут выполнены, много ли у заложников шансов остаться в живых?
Качество: BDRip
Формат: AVI
Видео кодек: XviD
Аудио кодек: AC3
Видео: 720x304, 2037 Кбит/сек
Аудио: 6 кан., 448 Кбит/сек | RUS/ENG
Доп. информация: бюджет $100 000 000
сборы в США $65 452 312
сборы в мире + $84 574 972 = $150 027 284
сборы в России $1 510 734 DVD в США $20 322 858
зрители 222.1 тыс., 176.5 тыс.
премьера (мир) 4 июня 2009
премьера (РФ) 3 сентября 2009, «BVSPR Sony»
релиз на Blu-Ray 24 марта 2011, «Columbia/Sony», ...
релиз на DVD 1 октября 2009, «Columbia/Sony», ...

Тех. Инфо.

Общее
Формат : AVI
Формат/Информация : Audio Video Interleave
Профиль формата : OpenDML
Размер файла : 2,18 Гбайт
Продолжительность : 1 ч. 45 м.
Общий поток : 2951 Кбит/сек
Название фильма : Опасные пассажиры поезда 123 / The Taking of Pelham 1 2 3 (2009) BDRip
Программа кодирования : VirtualDubMod 1.5.10.2 (build 2542/release)
Примечание : 13.11.2009
Видео
Идентификатор : 0
Формат : MPEG-4 Visual
Профиль формата : Advanced [email protected]
Параметр BVOP формата : 1
Параметр QPel формата : Нет
Параметр GMC формата : Без точки перехода
Параметр матрицы формата : Default (MPEG)
Идентификатор кодека : XVID
Идентификатор кодека/Подсказка : XviD
Продолжительность : 1 ч. 45 м.
Битрейт : 2037 Кбит/сек
Ширина : 720 пикселей
Высота : 304 пикселя
Соотношение сторон : 2,35:1
Частота кадров : 23,976 кадра/сек
Цветовое пространство : YUV
Субдискретизация насыщенности : 4:2:0
Битовая глубина : 8 бит
Тип развёртки : Прогрессивная
Метод сжатия : С потерями
Бит/(Пиксели*Кадры) : 0.388
Размер потока : 1,51 Гбайт (69%)
Библиотека кодирования : XviD 1.2.1 (UTC 2008-12-04)
Аудио #1
Идентификатор : 1
Формат : AC-3
Формат/Информация : Audio Coding 3
Расширение режима : CM (complete main)
Параметр Endianness формата : Big
Идентификатор кодека : 2000
Продолжительность : 1 ч. 45 м.
Вид битрейта : Постоянный
Битрейт : 448 Кбит/сек
Каналы : 6 каналов
Расположение каналов : Front: L C R, Side: L R, LFE
Частота : 48,0 КГц
Битовая глубина : 16 бит
Метод сжатия : С потерями
Размер потока : 339 Мбайт (15%)
Выравнивание : Разделение по промежуткам
Продолжительность промежутка : 42 мс. (1,00 видеокадр)
Время предзагрузки промежутка : 500 мс.
Аудио #2
Идентификатор : 2
Формат : AC-3
Формат/Информация : Audio Coding 3
Расширение режима : CM (complete main)
Параметр Endianness формата : Big
Идентификатор кодека : 2000
Продолжительность : 1 ч. 45 м.
Вид битрейта : Постоянный
Битрейт : 448 Кбит/сек
Каналы : 6 каналов
Расположение каналов : Front: L C R, Side: L R, LFE
Частота : 48,0 КГц
Битовая глубина : 16 бит
Метод сжатия : С потерями
Размер потока : 339 Мбайт (15%)
Выравнивание : Разделение по промежуткам
Продолжительность промежутка : 42 мс. (1,00 видеокадр)
Время предзагрузки промежутка : 500 мс.

Скриншоты









Последний раз редактировалось: Shkiper (2014-01-23 12:28), всего редактировалось 5 раз(а)

Создавать темы 23-Янв-2014 08:29

[Профиль]  [ЛС] 

Mixer City

Стаж: 6 лет 11 месяцев

Сообщений: 754

Симпатии: 63

Shkiper, я подправил всё, осталось добавить секунды к времени, добавьте...

Создавать темы 23-Янв-2014 12:09

[Профиль]  [ЛС] 

Shkiper ®

Стаж: 5 лет 1 месяц

Сообщений: 79

Симпатии: 17

Mixer City, спасибо.

Создавать темы 23-Янв-2014 12:29

[Профиль]  [ЛС] 

iamrazer

Стаж: 2 года 9 месяцев

Сообщений: 31

Симпатии: 3

скорость дайте кто нибудь

Создавать темы 04-Ноя-2016 21:38

[Профиль]  [ЛС] 
Показать сообщения:    
Ответить на тему

Текущее время: 18-Дек 23:43

Часовой пояс: UTC + 5



Вы не можете начинать темы
Вы не можете отвечать на сообщения
Вы не можете редактировать свои сообщения
Вы не можете удалять свои сообщения
Вы не можете голосовать в опросах
Вы не можете прикреплять файлы к сообщениям
Вы не можете скачивать файлы