Друзья Друзей (Артем Аксененко, Араик Оганесян) [2013 г., Комедия, WEBRip] [Чистый Звук]

Страницы :  1, 2  След.

Ответить на тему
 

razor0309 ®

Стаж: 4 года

Сообщений: 13

Год Выпуска: 2013
Страна: Россия
Жанр: Комедия
Продолжительность: 01:26:49
Перевод: Оригинал [Чистый Звук]- Режиссер: Артем Аксененко, Араик Оганесян.
В Ролях: Нюша, Гарик Харламов, Юрий Стоянов, Николай Наумов, Александр Ильин мл., Тимур Батрутдинов, Александр Молочников, Андрей Гайдулян, Олег Верещагин, Александр Булатов.- Описание: В канун Нового года пересекаются истории промоутера, впервые оставшегося дома с пятилетним ребенком, трех музыкантов из филармонии, решившихся на ограбление сурового бизнесмена, на домашнюю вечеринку к которому их отправил тот самый промоутер, и бедного студента, пригласившего на первое свидание в дорогой ресторан дочку того самого сурового бизнесмена. В результате, каждый из героев попадет в нелепые, пикантные, опасные, но все равно очень смешные ситуации, выбраться из которых им, конечно, помогут, друзья...-
Качество: WEBRip
Формат: AVI
Видео Кодек: XviD
Аудио Кодек: MP3
Видео: 2067 kb/s, 720x304
Аудио: 192 kb/s (2 ch)

MediaInfo

D:\My Files\Entertainment\Movie\Druzya.druzey.2013.WEBRip.1400MB[TAS-IX.NET].avi
General
Complete name : D:\My Files\Entertainment\Movie\Druzya.druzey.2013.WEBRip.1400MB[TAS-IX.NET].avi
Format : AVI
Format/Info : Audio Video Interleave
File size : 1.36 GiB
Duration : 1h 26mn
Overall bit rate : 2 269 Kbps
Writing application : VirtualDubMod 1.5.10.3 | www.virtualdub-fr.org || (build 2550/release)
Writing library : VirtualDubMod build 2550/release
Video #0
ID : 0
Format : MPEG-4 Visual
Format profile : Advanced [email protected]
Format settings, BVOP : 2
Format settings, QPel : No
Format settings, GMC : No warppoints
Format settings, Matrix : Custom
Codec ID : XVID
Codec ID/Hint : XviD
Duration : 1h 26mn
Bit rate : 1 978 Kbps
Width : 720 pixels
Height : 304 pixels
Display aspect ratio : 2.35:1
Frame rate : 24.000 fps
Color space : YUV
Chroma subsampling : 4:2:0
Bit depth : 8 bits
Scan type : Progressive
Compression mode : Lossy
Bits/(Pixel*Frame) : 0.377
Stream size : 1.19 GiB (87%)
Writing library : XviD 1.2.1 (UTC 2008-12-04)
Audio #1
ID : 1
Format : MPEG Audio
Format version : Version 1
Format profile : Layer 3
Codec ID : 55
Codec ID/Hint : MP3
Duration : 1h 26mn
Bit rate mode : Constant
Bit rate : 192 Kbps
Channel(s) : 2 channels
Sampling rate : 44.1 KHz
Compression mode : Lossy
Delay relative to video : 378ms
Stream size : 118 MiB (8%)
Alignment : Split accross interleaves
Writing library : LAME3.99r
Encoding settings : -m s -V 4 -q 2 -lowpass 18.6 -b 192

Скриншоты



Последний раз редактировалось: razor0309 (2014-01-23 13:54), всего редактировалось 1 раз

Создавать темы 23-Янв-2014 13:35

[Профиль]  [ЛС] 

victor0778

Стаж: 6 лет 9 месяцев

Сообщений: 1670

Симпатии: 142

razor0309, Если раздача будет позже, то и релиз уйдёт в тестовый

Создавать темы 23-Янв-2014 13:44

[Профиль]  [ЛС] 

shakhnozka

Стаж: 3 года 11 месяцев

Сообщений: 26

Симпатии: 2

качать будем сегодня?)

Создавать темы 23-Янв-2014 15:34

[Профиль]  [ЛС] 

mansurjon

Стаж: 7 лет 6 месяцев

Сообщений: 103

Симпатии: 3

раздаю Я
У кого Туронтелеком пишите лок. айпи и порт добавлю

Создавать темы 23-Янв-2014 16:51

[Профиль]  [ЛС] 

Sh0cky

Стаж: 5 лет 2 месяца

Сообщений: 74

Симпатии: 14

Офигеть какой рейтинг..

Создавать темы 23-Янв-2014 18:48

[Профиль]  [ЛС] 

olgakuz1988

Стаж: 3 года 11 месяцев

Сообщений: 9

качество вообще супер

Создавать темы 24-Янв-2014 17:20

[Профиль]  [ЛС] 

olgakuz1988

Стаж: 3 года 11 месяцев

Сообщений: 9

спасибо

Создавать темы 24-Янв-2014 17:21

[Профиль]  [ЛС] 

228

Стаж: 5 лет 1 месяц

Сообщений: 55

Симпатии: 2

Дайте скорости пожалуйста

Создавать темы 24-Янв-2014 19:16

[Профиль]  [ЛС] 

olgakuz1988

Стаж: 3 года 11 месяцев

Сообщений: 9

Скажите как.я помогу

Создавать темы 24-Янв-2014 19:29

[Профиль]  [ЛС] 

228

Стаж: 5 лет 1 месяц

Сообщений: 55

Симпатии: 2

Ребят встаньте на раздачу, кто скачал уже. я скачаю тоже на раздаче останусь

Создавать темы 24-Янв-2014 19:38

[Профиль]  [ЛС] 

228

Стаж: 5 лет 1 месяц

Сообщений: 55

Симпатии: 2

пару человек на раздачу и за часа два скачал бы.

Создавать темы 24-Янв-2014 19:44

[Профиль]  [ЛС] 

olgakuz1988

Стаж: 3 года 11 месяцев

Сообщений: 9

я всё понимаю,но я не понимаю,как вам помочь.

Создавать темы 24-Янв-2014 19:47

[Профиль]  [ЛС] 

olgakuz1988

Стаж: 3 года 11 месяцев

Сообщений: 9

ну и как?процесс пошёл?

Создавать темы 24-Янв-2014 19:59

[Профиль]  [ЛС] 

Angryt

Стаж: 4 года 4 месяца

Сообщений: 16

Симпатии: 1

дайте скорости плзз

Создавать темы 24-Янв-2014 23:54

[Профиль]  [ЛС] 

Angryt

Стаж: 4 года 4 месяца

Сообщений: 16

Симпатии: 1

Дай скорости плззз 2 день качаю уже то 10 кб дают то раздачи нету плз дайте скорости уже 70%

Создавать темы 25-Янв-2014 11:48

[Профиль]  [ЛС] 
Показать сообщения:    
Ответить на тему

Текущее время: 18-Ноя 20:51

Часовой пояс: UTC + 5



Вы не можете начинать темы
Вы не можете отвечать на сообщения
Вы не можете редактировать свои сообщения
Вы не можете удалять свои сообщения
Вы не можете голосовать в опросах
Вы не можете прикреплять файлы к сообщениям
Вы не можете скачивать файлы