Любовь в большом городе 3 (Марюс Вайсберг, Дэвид Додсон) [2013., комедия, DVDRip] [Лицензия]

Страницы :  1, 2  След.

Ответить на тему
 

victor0778 ®

Стаж: 6 лет 7 месяцев

Сообщений: 1670

Симпатии: 142

Любовь в большом городе 3«Мы верим в любовь»-
Год выпуска: 2013
Страна: Россия, Украина
Жанр: комедия
Продолжительность: 01:18:45
Перевод: Оригинал | Лицензия-Режиссер: Марюс Вайсберг, Дэвид Додсон-Сценарий: Андрей Яковлев, Михаил Савин, Юрий Костюк, ...
Продюсер: Сергей Ливнев, Владимир Зеленский, Сергей Шефир, ...
Оператор: Брюс Алан Грин
Монтаж: Дэвид Додсон-В ролях: Алексей Чадов , Владимир Зеленский , Светлана Ходченкова , Вера Брежнева , Вилле Хаапасало , Настя Задорожная , Филипп Киркоров , Шэрон Стоун -Описание: В жизни каждого отца, рано или поздно наступает момент, когда жена улетает на заслуженный отдых, а он остается один на один с собственным ребенком. Казалось бы — ничего сложного! Также подумали Игорь, Артем и Сауна, даже не подозревая, какой «водопад» приключений накроет их с головой. Измученные «прелестями» отцовства, парни встречают своего старого приятеля Святого Валентина. Снимая стресс за бутылочкой виски, ребята в шутку мечтают о том, чтобы их дети поскорее стали взрослыми. А на утро, шокированные папаши понимают — их мечта сбылась и теперь они на собственной шкуре поймут, что значит поговорка: Большие дети — большие проблемы…-Сборы в России: $14 934 230 сборы
Зрители: Россия 1.98 млн
Премьера (мир): 1 января 2014, ...
Премьера (РФ): 1 января 2014, «Централ Партнершип»
Релиз на DVD: 30 января 2014, «CD Land», ...-Качество: DVDRip
Формат: AVI
Видео кодек: XviD
Аудио кодеk: AC3
Видео: 720x400 (16:9), 25.000 fps, XviD, 2 093 Kbps
Аудио: AC3, 384 Kbps, 48.0 KHz, 6 ch

-   -

МедиаИнфо

General
Complete name                    : Lubov.V.Bolshom.Gorode.2013.O.DVDRip.1400MB[TAS-IX.NET].avi
Format                           : AVI
Format/Info                      : Audio Video Interleave
File size                        : 1.37 GiB
Duration                         : 1h 18mn
Overall bit rate                 : 2 487 Kbps
Writing application              : VirtualDubMod 1.5.10.3 | www.virtualdub-fr.org || (build 2550/release)
Writing library                  : VirtualDubMod build 2550/release
Video
ID                               : 0
Format                           : MPEG-4 Visual
Format profile                   : Advanced [email protected]
Format settings, BVOP            : Yes
Format settings, QPel            : No
Format settings, GMC             : No warppoints
Format settings, Matrix          : Default (MPEG)
Codec ID                         : XVID
Codec ID/Hint                    : XviD
Duration                         : 1h 18mn
Bit rate                         : 2 093 Kbps
Width                            : 720 pixels
Height                           : 400 pixels
Display aspect ratio             : 16:9
Frame rate                       : 25.000 fps
Color space                      : YUV
Chroma subsampling               : 4:2:0
Bit depth                        : 8 bits
Scan type                        : Progressive
Bits/(Pixel*Frame)               : 0.291
Stream size                      : 1.15 GiB (84%)
Writing library                  : XviD 1.2.1 (UTC 2008-12-04)
Audio
ID                               : 1
Format                           : AC-3
Format/Info                      : Audio Coding 3
Mode extension                   : CM (complete main)
Codec ID                         : 2000
Duration                         : 1h 18mn
Bit rate mode                    : Constant
Bit rate                         : 384 Kbps
Channel(s)                       : 6 channels
Channel positions                : Front: L C R, Side: L R, LFE
Sampling rate                    : 48.0 KHz
Bit depth                        : 16 bits
Stream size                      : 216 MiB (15%)
Alignment                        : Split accross interleaves
Interleave, duration             : 40 ms (1.00 video frame)
Interleave, preload duration     : 500 ms

Знаете ли Вы, что...

· При разработке плана поцелуя в отеле Настя (Светлана Ходченкова) обращается к своему мужу, Игорю (Владимир Зеленский) по фамилии: Зеленский.

Скриншоты

Создавать темы 24-Янв-2014 02:09

[Профиль]  [ЛС] 

Propagandist

Стаж: 5 лет 8 месяцев

Сообщений: 26

Симпатии: 8

видел только что скриншот где вера брежнева похожа на смергол из властелина кольца..вот ржака ахах

Создавать темы 24-Янв-2014 04:02

[Профиль]  [ЛС] 

shakhnozka

Стаж: 3 года 9 месяцев

Сообщений: 26

Симпатии: 2

классный фильм)

Создавать темы 24-Янв-2014 17:04

[Профиль]  [ЛС] 

AeRoNHanD

Стаж: 4 года 11 месяцев

Сообщений: 198

Симпатии: 3

Так быстро классно))))

Создавать темы 24-Янв-2014 21:14

[Профиль]  [ЛС] 

serj777

Стаж: 4 года 2 месяца

Сообщений: 59

Симпатии: 3

Как качество?

Создавать темы 25-Янв-2014 03:09

[Профиль]  [ЛС] 

victor0778 ®

Стаж: 6 лет 7 месяцев

Сообщений: 1670

Симпатии: 142

Как качество?
качество в норме, да и по скринам видно

Создавать темы 25-Янв-2014 03:14

[Профиль]  [ЛС] 

Jnec

Стаж: 4 года 10 месяцев

Сообщений: 165

Спасибо большое!!!

Создавать темы 25-Янв-2014 13:10

[Профиль]  [ЛС] 

serj777

Стаж: 4 года 2 месяца

Сообщений: 59

Симпатии: 3

Спасибо! просто бывало скрины нормальные! а фильм с кинотеатра снят!

Создавать темы 25-Янв-2014 15:18

[Профиль]  [ЛС] 

skyrocker

Стаж: 5 лет 6 месяцев

Сообщений: 96

Симпатии: 3

А длительность действительно такая? Нигде фильмец не обрезан? А то в описания разные в том числе кинопоиск утверждает что фильм идет 95 минут?!

Создавать темы 25-Янв-2014 22:19

[Профиль]  [ЛС] 

skyrocker

Стаж: 5 лет 6 месяцев

Сообщений: 96

Симпатии: 3

Все на месте)) Спасибо за фильмец, от души посмеялся))

Создавать темы 26-Янв-2014 01:28

[Профиль]  [ЛС] 

extrimal1994

Стаж: 4 года 7 месяцев

Сообщений: 153

Симпатии: 26

скорость раздачи норм,у кого долго качает значит проблема с вашей стороны

Создавать темы 26-Янв-2014 12:37

[Профиль]  [ЛС] 

asdshka

Стаж: 3 года 9 месяцев

Сообщений: 3

Дайте скорость...у меня 33кб качает...

Создавать темы 26-Янв-2014 14:46

[Профиль]  [ЛС] 

Explorer

Стаж: 3 года 9 месяцев

Сообщений: 4

extrimal1994, У тебя какой провайдер?Как так раздавать?

Создавать темы 29-Янв-2014 00:02

[Профиль]  [ЛС] 

rasul1990

Стаж: 5 лет 8 месяцев

Сообщений: 8

шикарно класс

Создавать темы 04-Фев-2014 13:59

[Профиль]  [ЛС] 

shox26

Стаж: 3 года 10 месяцев

Сообщений: 4

Спасибо большое!!!

Создавать темы 11-Мар-2014 23:25

[Профиль]  [ЛС] 
Показать сообщения:    
Ответить на тему

Текущее время: 21-Сен 08:21

Часовой пояс: UTC + 5



Вы не можете начинать темы
Вы не можете отвечать на сообщения
Вы не можете редактировать свои сообщения
Вы не можете удалять свои сообщения
Вы не можете голосовать в опросах
Вы не можете прикреплять файлы к сообщениям
Вы не можете скачивать файлы