Короли танцпола / Battle of the Year (Бенсон Ли / Benson Lee) [2013, США, музыка, HDRip] Dub [iTunes]

Ответить на тему
 

Suxrob89 ®

Стаж: 7 лет 4 месяца

Сообщений: 933

Симпатии: 564

-Короли танцпола / Battle of the Year - Страна: США
Жанр: музыка
Год выпуска: 2013
Продолжительность: 01:49:00
Перевод: Дублированный [iTunes]
Cубтитры: нет
Оригинальная аудиодорожка: нет-Режиссер: Бенсон Ли / Benson Lee-В ролях: Джош Холлоуэй, Лас Алонсо, Джош Пек, Кейти Лотц, Крис Браун, Иван «Флипз» Велез, Джон «Ду Нок» Крус, Джесси «Каспер» Браун, Дэвид Шрейбман, Саванди Уилсон-Описание: Фильм расскажет про подготовку би-боев, которые в конце года сразятся на финальном соревновании. Главные герои после поражения имеют не так много времени, чтобы подготовиться к встрече с лучшими би-боями мира, которые доминируют на играх уже 10 лет…-Дата мировой премьеры: 19 сентября 2013
Дата российской премьеры: 12 декабря 2013, «WDSSPR»
Дата украинской премьеры: 12 декабря 2013, «B&H Film Distribution Company»
Дата выхода DVD релиза: 25 марта 2014, «Columbia/Sony»- -Качество: HDRip [рип с BDRip 1080p]
Формат: AVI
Видео кодек: XviD
Аудио кодек: AC-3
Видео: 720x384 (1.875), 23.976 fps, 1 391 Kbps (0.210 bit/pixel)
Аудио: AC-3, 48.0 KHz, 2 ch, 384 Kbps, CBR

Media info

Формат : AVI
Формат/Информация : Audio Video Interleave
Размер файла : 1,37 Гбайт
Продолжительность : 1 ч. 49 м.
Общий поток : 1784 Кбит/сек
Программа кодирования : VirtualDubMod 1.5.10.2 (build 2540/release)
Библиотека кодирования : VirtualDubMod build 2540/release
Видео
Идентификатор : 0
Формат : MPEG-4 Visual
Профиль формата : Advanced [email protected]
Параметр BVOP формата : 2
Параметр QPel формата : Нет
Параметр GMC формата : Без точки перехода
Параметр матрицы формата : Выборочная
Идентификатор кодека : XVID
Идентификатор кодека/Подсказка : XviD
Продолжительность : 1 ч. 49 м.
Битрейт : 1391 Кбит/сек
Ширина : 720 пикселей
Высота : 384 пикселя
Соотношение сторон : 1,85:1
Частота кадров : 23,976 кадра/сек
Цветовое пространство : YUV
Субдискретизация насыщенности : 4:2:0
Битовая глубина : 8 бит
Тип развёртки : Прогрессивная
Метод сжатия : С потерями
Бит/(Пиксели*Кадры) : 0.210
Размер потока : 1,07 Гбайт (78%)
Библиотека кодирования : XviD 1.2.1 (UTC 2008-12-04)
Аудио
Идентификатор : 1
Формат : AC-3
Формат/Информация : Audio Coding 3
Расширение режима : CM (complete main)
Параметр Endianness формата : Big
Идентификатор кодека : 2000
Продолжительность : 1 ч. 49 м.
Вид битрейта : Постоянный
Битрейт : 384 Кбит/сек
Каналы : 2 канала
Расположение каналов : Front: L R
Частота : 48,0 КГц
Битовая глубина : 16 бит
Метод сжатия : С потерями
Размер потока : 301 Мбайт (22%)
Выравнивание : Разделение по промежуткам
Продолжительность промежутка : 42 мс. (1,00 видеокадр)
Время предзагрузки промежутка : 500 мс.

Скриншот c названием фильма

Скриншоты

Создавать темы 24-Янв-2014 06:48

[Профиль]  [ЛС] 

Sayfah

Стаж: 4 года 1 месяц

Сообщений: 15

ДАЙТЕ СКОРОСТИ ПОЖАЛСТА

Создавать темы 24-Янв-2014 19:27

[Профиль]  [ЛС] 

nayter

Стаж: 5 лет 9 месяцев

Сообщений: 33

+1

Создавать темы 25-Янв-2014 00:15

[Профиль]  [ЛС] 

Бездущный

Стаж: 4 года

Сообщений: 73

Симпатии: 10

дайте скорости пожалуйста

Создавать темы 25-Янв-2014 15:50

[Профиль]  [ЛС] 

Loki

Стаж: 6 лет 6 месяцев

Сообщений: 36

Крис Браун внушает надежду на то, что фильм должен быть хорош...

Создавать темы 25-Янв-2014 20:01

[Профиль]  [ЛС] 

Exsis

Стаж: 5 лет 10 месяцев

Сообщений: 79

Симпатии: 2

Сидов то много, но у меня не качается(

Создавать темы 26-Янв-2014 14:13

[Профиль]  [ЛС] 

RASHoka

Стаж: 4 года

Сообщений: 3

скорость плиззззз

Создавать темы 27-Янв-2014 01:19

[Профиль]  [ЛС] 

Angel85

Стаж: 5 лет 9 месяцев

Сообщений: 3

дайте скорости пожаааалуйста((

Создавать темы 31-Янв-2014 14:33

[Профиль]  [ЛС] 

4LIFEIP

Стаж: 4 года 8 месяцев

Сообщений: 127

Симпатии: 1

))рип с бдрип))...

Создавать темы 04-Фев-2014 22:54

[Профиль]  [ЛС] 

West_Monster

Стаж: 4 года 4 месяца

Сообщений: 62

Симпатии: 1

какая песня там где сша против россию?

Создавать темы 15-Фев-2014 19:34

[Профиль]  [ЛС] 
Показать сообщения:    
Ответить на тему

Текущее время: 16-Дек 23:46

Часовой пояс: UTC + 5



Вы не можете начинать темы
Вы не можете отвечать на сообщения
Вы не можете редактировать свои сообщения
Вы не можете удалять свои сообщения
Вы не можете голосовать в опросах
Вы не можете прикреплять файлы к сообщениям
Вы не можете скачивать файлы