Пятая власть / The Fifth Estate (Билл Кондон / Bill Condon) [2013 г., триллер, драма, биография, HDRip]

Ответить на тему
 

Suxrob89 ®

Стаж: 7 лет 1 месяц

Сообщений: 933

Симпатии: 564

--Пятая власть / The Fifth Estate--«Всё тайное станет явным»-- Информация о фильме:
Страна: Великобритания, Бельгия
Жанр: триллер, драма, биография
Год выпуска: 2013
Продолжительность: 02:08:15
Перевод: Дублированный [Не официальный!]

Cубтитры: нет--Режиссер: Билл Кондон--В ролях: Бенедикт Камбербэтч, Даниэль Брюль, Энтони Маки, Дэвид Тьюлис, Алисия Викандер, Стэнли Туччи, Лора Линни, Питер Капальди, Анатоль Таубман, Александр Байер--Описание: В мире, где информация ценится превыше всего, а утечка сведений под грифом «секретно» может вызвать необратимые последствия, сайт WikiLeaks навсегда поменял правила игры. Фильм, основанный на реальных событиях, рассказывает о попытке разоблачить государственную коррупцию и ложь властей, которая превратила интернет-стартап в одну из самых известных и обсуждаемых организаций 21-го века. За первые годы существования WIKILEAKS обнародовал больше тайн, чем самые влиятельные в мире СМИ вместе взятые, раскрывая постыдные секреты государственных служб и финансовые преступления корпораций. Но когда основатели сайта получили доступ к крупнейшему засекреченному архиву США, им предстояло найти для себя ответ на один из важнейших вопросов современности: какова цена тайны в свободном обществе — и какова цена ее разглашения?--Рейтинг:
 --Файл:
Качество видео: HDRip [Рип с BDRip 720p]
Формат видео: AVI
Видео: XviD, 1834 Кбит/с, 720x304
Аудио: AC3, 6 ch, 448 Кбит/с----

MediaInfo

E:\Pyataya.vlast.2013.D.HDRip.2100MB.avi
General
Complete name : E:\Pyataya.vlast.2013.D.HDRip.2100MB.avi
Format : AVI
Format/Info : Audio Video Interleave
File size : 2.05 GiB
Duration : 2h 8mn
Overall bit rate : 2 291 Kbps
Writing application : VirtualDubMod 1.5.10.2 (build 2540/release)
Writing library : VirtualDubMod build 2540/release
Video #0
ID : 0
Format : MPEG-4 Visual
Format profile : Advanced [email protected]
Format settings, BVOP : 2
Format settings, QPel : No
Format settings, GMC : No warppoints
Format settings, Matrix : Default (MPEG)
Codec ID : XVID
Codec ID/Hint : XviD
Duration : 2h 8mn
Bit rate : 1 834 Kbps
Width : 720 pixels
Height : 304 pixels
Display aspect ratio : 2.35:1
Frame rate : 23.976 fps
Color space : YUV
Chroma subsampling : 4:2:0
Bit depth : 8 bits
Scan type : Progressive
Compression mode : Lossy
Bits/(Pixel*Frame) : 0.349
Stream size : 1.64 GiB (80%)
Writing library : XviD 1.2.1 (UTC 2008-12-04)
Audio #1
ID : 1
Format : AC-3
Format/Info : Audio Coding 3
Mode extension : CM (complete main)
Format settings, Endianness : Big
Codec ID : 2000
Duration : 2h 8mn
Bit rate mode : Constant
Bit rate : 448 Kbps
Channel count : 6 channels
Channel positions : Front: L C R, Side: L R, LFE
Sampling rate : 48.0 KHz
Bit depth : 16 bits
Compression mode : Lossy
Stream size : 411 MiB (20%)
Alignment : Split accross interleaves
Interleave, duration : 42 ms (1.00 video frame)
Interleave, preload duration : 500 ms

Скриншот c названием фильма

Скриншоты






Последний раз редактировалось: Suxrob89 (2014-02-02 15:29), всего редактировалось 2 раз(а)

Создавать темы 24-Янв-2014 07:12

[Профиль]  [ЛС] 

Sh0cky

Стаж: 5 лет 1 месяц

Сообщений: 74

Симпатии: 14

Шерлок, ты ли это?

Создавать темы 24-Янв-2014 18:23

[Профиль]  [ЛС] 

Akbarhon

Стаж: 6 лет 5 месяцев

Сообщений: 31

Симпатии: 3

Спасибо большое!

Создавать темы 24-Янв-2014 19:49

[Профиль]  [ЛС] 

totsamiy

Стаж: 5 лет 3 месяца

Сообщений: 145

Симпатии: 22

Шерлок, ты ли это?
Др. Ватсон, вот вы где?! )))

Создавать темы 24-Янв-2014 19:51

[Профиль]  [ЛС] 

a.salmin

Стаж: 6 лет 10 месяцев

Сообщений: 14

А полный дубляж есть смысл ждать? Или его не будет? Кто-нибудь в курсе?

Создавать темы 25-Янв-2014 11:25

[Профиль]  [ЛС] 

Akbarhon

Стаж: 6 лет 5 месяцев

Сообщений: 31

Симпатии: 3

Suxrob89, Раздавай быстрее, пожалуйста

Создавать темы 25-Янв-2014 18:12

[Профиль]  [ЛС] 

mariolover

Стаж: 5 лет 5 месяцев

Сообщений: 16

Симпатии: 1

у больше половины качающих -тупик на 98-99 процентах))

Создавать темы 25-Янв-2014 19:20

[Профиль]  [ЛС] 

iziriz

Стаж: 3 года 8 месяцев

Сообщений: 34

Симпатии: 4

фильмец такой ничо ничо

Создавать темы 27-Янв-2014 01:56

[Профиль]  [ЛС] 

Иви

Стаж: 5 лет 8 месяцев

Сообщений: 688

Симпатии: 65

шапку подправил
важно: перевод - дубляж, но не официальный

Создавать темы 02-Фев-2014 15:31

[Профиль]  [ЛС] 
Показать сообщения:    
Ответить на тему

Текущее время: 26-Сен 07:09

Часовой пояс: UTC + 5



Вы не можете начинать темы
Вы не можете отвечать на сообщения
Вы не можете редактировать свои сообщения
Вы не можете удалять свои сообщения
Вы не можете голосовать в опросах
Вы не можете прикреплять файлы к сообщениям
Вы не можете скачивать файлы