(Breakbeat, Big Beat, Dubstep) [CD] The Crystal Method - The Crystal Method - 2014, FLAC (tracks+.cue), lossless

Ответить на тему
 

ScorpiuS ®

Стаж: 7 лет

Сообщений: 206

Симпатии: 122

The Crystal Method - The Crystal Method-- Жанр: breakbeat \ big beat \ dubstep
Носитель: CD
Год издания: 2014
Издатель (лейбл): Tiny e records
Формат: Album \ unmixed \ 11 x File
Страна: US
Аудиокодек: FLAC (*.flac)
Тип рипа: tracks+.cue
Битрейт аудио: lossless
Продолжительность: 00:49:17
Источник (релизер): waffles
Наличие сканов в содержимом раздачи: нет
Офф. сайт: www.thecrystalmethod.com-Треклист:
01. Emulator (05:14)
02. Over It (Feat. Dia Frampton) (03:14)
03. Sling The Decks (04:50)
04. Storm The Castle (Feat. Le Castle) (04:22)
05. 110 To The 101 (05:46)
06. Jupiter Shift (05:03)
07. Dosimeter (Feat. Nick Thayer) (06:16)
08. Grace (Feat. LeAnn Rimes) (05:06)
09. Difference (Feat. Franky Perez) (04:04)
10. Metro (01:26)
11. After Hours (Feat. Afrobeta) (03:52)

О группе

The Crystal Method — американский электронный дуэт, состоящий из Кена Джордана и Скотта Кирклэнда.Наряду с такими группами, как The Prodigy, Fatboy Slim, The Chemical Brothers, а также несколькимименее известными коллективами, дуэт стал первооткрывателем в электронной музыке жанра бигбит.больше инф-ии http://ru.wikipedia.org/wiki/The_Crystal_Method

Лог создания рипа

X Lossless Decoder version 20131102 (145.0)
XLD extraction logfile from 2014-01-14 23:36:05 -0800
The Crystal Method / The Crystal Method
Used drive : PLEXTOR BDDVDR PX-B310U (revision 1.07)Media type : CD-ReWritable
Ripper mode : XLD Secure RipperDisable audio cache : OK for the drive with a cache less than 1375KiBMake use of C2 pointers : NORead offset correction : 6Max retry count : 100Gap status : Analyzed, Appended
TOC of the extracted CD Track | Start | Length | Start sector | End sector --------------------------------------------------------- 1 | 00:00:00 | 05:13:69 | 0 | 23543 2 | 05:13:69 | 03:14:03 | 23544 | 38096 3 | 08:27:72 | 04:50:00 | 38097 | 59846 4 | 13:17:72 | 04:22:39 | 59847 | 79535 5 | 17:40:36 | 05:46:24 | 79536 | 105509 6 | 23:26:60 | 05:03:66 | 105510 | 128300 7 | 28:30:51 | 06:16:37 | 128301 | 156537 8 | 34:47:13 | 05:06:00 | 156538 | 179487 9 | 39:53:13 | 04:04:00 | 179488 | 197787 10 | 43:57:13 | 01:26:38 | 197788 | 204275 11 | 45:23:51 | 03:52:37 | 204276 | 221712
AccurateRip Summary Disc not found in AccurateRip DB.
All Tracks Album gain : -11.18 dB Peak : 0.993011 Statistics Read error : 0 Jitter error (maybe fixed) : 0 Retry sector count : 0 Damaged sector count : 0
Track 01 Filename : /Volumes/2014 flac/The Crystal Method - The Crystal Method (2014) [FLAC]/01 - Emulator.flac Pre-gap length : 00:02:00
Track gain : -10.53 dB Peak : 0.993011 CRC32 hash (test run) : 16BF4224 CRC32 hash : 16BF4224 CRC32 hash (skip zero) : 76F2D633 AccurateRip v1 signature : 203641C6 AccurateRip v2 signature : 72D92D3F ->Track not present in AccurateRip database. Statistics Read error : 0 Jitter error (maybe fixed) : 0 Retry sector count : 0 Damaged sector count : 0
Track 02 Filename : /Volumes/2014 flac/The Crystal Method - The Crystal Method (2014) [FLAC]/02 - Over It (Featuring Dia Frampton).flac
Track gain : -10.09 dB Peak : 0.993011 CRC32 hash (test run) : FFE009DC CRC32 hash : FFE009DC CRC32 hash (skip zero) : 61599AC8 AccurateRip v1 signature : 0900F678 AccurateRip v2 signature : 28341719 ->Track not present in AccurateRip database. Statistics Read error : 0 Jitter error (maybe fixed) : 0 Retry sector count : 0 Damaged sector count : 0
Track 03 Filename : /Volumes/2014 flac/The Crystal Method - The Crystal Method (2014) [FLAC]/03 - Sling the Decks.flac
Track gain : -11.77 dB Peak : 0.993011 CRC32 hash (test run) : 9162A612 CRC32 hash : 9162A612 CRC32 hash (skip zero) : D399C7CA AccurateRip v1 signature : 721F546B AccurateRip v2 signature : CA5A3A4A ->Track not present in AccurateRip database. Statistics Read error : 0 Jitter error (maybe fixed) : 0 Retry sector count : 0 Damaged sector count : 0
Track 04 Filename : /Volumes/2014 flac/The Crystal Method - The Crystal Method (2014) [FLAC]/04 - Storm the Castle (Featuring Le Castle Vania).flac
Track gain : -10.96 dB Peak : 0.993011 CRC32 hash (test run) : 6DFA15E3 CRC32 hash : 6DFA15E3 CRC32 hash (skip zero) : 7169645A AccurateRip v1 signature : FA0FFEBC AccurateRip v2 signature : 4D18D3BB ->Track not present in AccurateRip database. Statistics Read error : 0 Jitter error (maybe fixed) : 0 Retry sector count : 0 Damaged sector count : 0
Track 05 Filename : /Volumes/2014 flac/The Crystal Method - The Crystal Method (2014) [FLAC]/05 - 110 to the 101.flac
Track gain : -11.97 dB Peak : 0.993011 CRC32 hash (test run) : 88FAD07F CRC32 hash : 88FAD07F CRC32 hash (skip zero) : 96F4F8E5 AccurateRip v1 signature : 8FC44A3C AccurateRip v2 signature : 555E4D4D ->Track not present in AccurateRip database. Statistics Read error : 0 Jitter error (maybe fixed) : 0 Retry sector count : 0 Damaged sector count : 0
Track 06 Filename : /Volumes/2014 flac/The Crystal Method - The Crystal Method (2014) [FLAC]/06 - Jupiter Shift.flac
Track gain : -10.75 dB Peak : 0.993011 CRC32 hash (test run) : 48BEBEBF CRC32 hash : 48BEBEBF CRC32 hash (skip zero) : 922AA462 AccurateRip v1 signature : C6E96F1F AccurateRip v2 signature : AA15A076 ->Track not present in AccurateRip database. Statistics Read error : 0 Jitter error (maybe fixed) : 0 Retry sector count : 0 Damaged sector count : 0
Track 07 Filename : /Volumes/2014 flac/The Crystal Method - The Crystal Method (2014) [FLAC]/07 - Dosimeter (Featuring Nick Thayer).flac
Track gain : -10.71 dB Peak : 0.993011 CRC32 hash (test run) : 932DB4B9 CRC32 hash : 932DB4B9 CRC32 hash (skip zero) : E312B5CD AccurateRip v1 signature : 0704AA2B AccurateRip v2 signature : 0C054B20 ->Track not present in AccurateRip database. Statistics Read error : 0 Jitter error (maybe fixed) : 0 Retry sector count : 0 Damaged sector count : 0
Track 08 Filename : /Volumes/2014 flac/The Crystal Method - The Crystal Method (2014) [FLAC]/08 - Grace (Featuring LeAnn Rimes).flac
Track gain : -10.24 dB Peak : 0.993011 CRC32 hash (test run) : 8E981BBD CRC32 hash : 8E981BBD CRC32 hash (skip zero) : E343A74D AccurateRip v1 signature : 4562982F AccurateRip v2 signature : EAB5C705 ->Track not present in AccurateRip database. Statistics Read error : 0 Jitter error (maybe fixed) : 0 Retry sector count : 0 Damaged sector count : 0
Track 09 Filename : /Volumes/2014 flac/The Crystal Method - The Crystal Method (2014) [FLAC]/09 - Difference (Featuring Franky Perez).flac
Track gain : -11.79 dB Peak : 0.993011 CRC32 hash (test run) : 669674D3 CRC32 hash : 669674D3 CRC32 hash (skip zero) : 1D295255 AccurateRip v1 signature : 788A048F AccurateRip v2 signature : 54A6C37E ->Track not present in AccurateRip database. Statistics Read error : 0 Jitter error (maybe fixed) : 0 Retry sector count : 0 Damaged sector count : 0
Track 10 Filename : /Volumes/2014 flac/The Crystal Method - The Crystal Method (2014) [FLAC]/10 - Metro.flac
Track gain : -6.88 dB Peak : 0.992950 CRC32 hash (test run) : 2C7409DF CRC32 hash : 2C7409DF CRC32 hash (skip zero) : CDEC0829 AccurateRip v1 signature : 25777616 AccurateRip v2 signature : 8B4F7079 ->Track not present in AccurateRip database. Statistics Read error : 0 Jitter error (maybe fixed) : 0 Retry sector count : 0 Damaged sector count : 0
Track 11 Filename : /Volumes/2014 flac/The Crystal Method - The Crystal Method (2014) [FLAC]/11 - After Hours (Featuring Afrobeta).flac
Track gain : -11.36 dB Peak : 0.993011 CRC32 hash (test run) : 357EEB93 CRC32 hash : 357EEB93 CRC32 hash (skip zero) : 2887B415 AccurateRip v1 signature : 55672FC6 AccurateRip v2 signature : 63066D55 ->Track not present in AccurateRip database. Statistics Read error : 0 Jitter error (maybe fixed) : 0 Retry sector count : 0 Damaged sector count : 0
No errors occurred
End of status report
-----BEGIN XLD SIGNATURE-----SLghG7kY6pDugmucj8BgJGoEsx_0p4eYzWMlqLPOUcVVrKciIa4f3k5P9nBVwdRbUwaFUp0SNgdh30sNKqzLF_D3l2s5upVQB2RHL80-----END XLD SIGNATURE-----

Содержание индексной карты (.CUE)

TITLE "The Crystal Method"PERFORMER "The Crystal Method"CATALOG 0881034111418REM GENRE "Electronica"REM DATE "2014"REM DISCNUMBER 1REM TOTALDISCS 1REM DISCID 9D0B8C0BREM REPLAYGAIN_ALBUM_GAIN -11.18 dBREM REPLAYGAIN_ALBUM_PEAK 0.993011FILE "01 - Emulator.flac" WAVE TRACK 01 AUDIO TITLE "Emulator" ISRC USQY51401137 FLAGS DCP REM REPLAYGAIN_TRACK_GAIN -10.53 dB REM REPLAYGAIN_TRACK_PEAK 0.993011 INDEX 01 00:00:00FILE "02 - Over It (Featuring Dia Frampton).flac" WAVE TRACK 02 AUDIO TITLE "Over It (Featuring Dia Frampton)" ISRC USA2P1390273 FLAGS DCP REM REPLAYGAIN_TRACK_GAIN -10.09 dB REM REPLAYGAIN_TRACK_PEAK 0.993011 INDEX 01 00:00:00FILE "03 - Sling the Decks.flac" WAVE TRACK 03 AUDIO TITLE "Sling the Decks" ISRC USQY51401139 FLAGS DCP REM REPLAYGAIN_TRACK_GAIN -11.77 dB REM REPLAYGAIN_TRACK_PEAK 0.993011 INDEX 01 00:00:00FILE "04 - Storm the Castle (Featuring Le Castle Vania).flac" WAVE TRACK 04 AUDIO TITLE "Storm the Castle (Featuring Le Castle Vania)" ISRC USQY51401140 FLAGS DCP REM REPLAYGAIN_TRACK_GAIN -10.96 dB REM REPLAYGAIN_TRACK_PEAK 0.993011 INDEX 01 00:00:00FILE "05 - 110 to the 101.flac" WAVE TRACK 05 AUDIO TITLE "110 to the 101" ISRC USQY51401141 FLAGS DCP REM REPLAYGAIN_TRACK_GAIN -11.97 dB REM REPLAYGAIN_TRACK_PEAK 0.993011 INDEX 01 00:00:00FILE "06 - Jupiter Shift.flac" WAVE TRACK 06 AUDIO TITLE "Jupiter Shift" ISRC USQY51401142 FLAGS DCP REM REPLAYGAIN_TRACK_GAIN -10.75 dB REM REPLAYGAIN_TRACK_PEAK 0.993011 INDEX 01 00:00:00FILE "07 - Dosimeter (Featuring Nick Thayer).flac" WAVE TRACK 07 AUDIO TITLE "Dosimeter (Featuring Nick Thayer)" ISRC USQY51401143 FLAGS DCP REM REPLAYGAIN_TRACK_GAIN -10.71 dB REM REPLAYGAIN_TRACK_PEAK 0.993011 INDEX 01 00:00:00FILE "08 - Grace (Featuring LeAnn Rimes).flac" WAVE TRACK 08 AUDIO TITLE "Grace (Featuring LeAnn Rimes)" ISRC USQY51401144 FLAGS DCP REM REPLAYGAIN_TRACK_GAIN -10.24 dB REM REPLAYGAIN_TRACK_PEAK 0.993011 INDEX 01 00:00:00FILE "09 - Difference (Featuring Franky Perez).flac" WAVE TRACK 09 AUDIO TITLE "Difference (Featuring Franky Perez)" ISRC USQY51401145 FLAGS DCP REM REPLAYGAIN_TRACK_GAIN -11.79 dB REM REPLAYGAIN_TRACK_PEAK 0.993011 INDEX 01 00:00:00FILE "10 - Metro.flac" WAVE TRACK 10 AUDIO TITLE "Metro" ISRC USQY51401146 FLAGS DCP REM REPLAYGAIN_TRACK_GAIN -6.88 dB REM REPLAYGAIN_TRACK_PEAK 0.992950 INDEX 01 00:00:00FILE "11 - After Hours (Featuring Afrobeta).flac" WAVE TRACK 11 AUDIO TITLE "After Hours (Featuring Afrobeta)" ISRC USQY51401147 FLAGS DCP REM REPLAYGAIN_TRACK_GAIN -11.36 dB REM REPLAYGAIN_TRACK_PEAK 0.993011 INDEX 01 00:00:00

Создавать темы 24-Янв-2014 19:56

[Профиль]  [ЛС] 

Топик был перенесен из форума Drum & Bass, Jungle, Breakbeat в форум Lossless

TIESTO

Создавать темы 24-Янв-2014 19:59

 

ibragimof

Стаж: 6 лет 5 месяцев

Сообщений: 253

Симпатии: 48

О! Вот это новость!
Музыка моих юных лет)
С удовольствием послушаю.

Создавать темы 24-Янв-2014 22:33

[Профиль]  [ЛС] 

ibragimof

Стаж: 6 лет 5 месяцев

Сообщений: 253

Симпатии: 48

если честно..не очень..
нет "старого" драйва
даже во флаке музыка кажется такой бедной
в общем, пичалька

Создавать темы 29-Янв-2014 23:47

[Профиль]  [ЛС] 

Desertboy

Стаж: 7 лет 10 месяцев

Сообщений: 96

Симпатии: 2

если честно..не очень..
нет "старого" драйва
даже во флаке музыка кажется такой бедной
в общем, пичалька
Vegas они уже не смогли повторить!

Создавать темы 30-Янв-2014 00:03

[Профиль]  [ЛС] 

ScorpiuS ®

Стаж: 7 лет

Сообщений: 206

Симпатии: 122

Некоторые команды с возрастом "тяжелеют" в звуке, а некоторые "попсеют". Эти похоже пошли по второму пути. Не узнал их, От крутого звучания следа почти не осталось.

Создавать темы 09-Фев-2014 12:10

[Профиль]  [ЛС] 
Показать сообщения:    
Ответить на тему

Текущее время: 22-Сен 14:59

Часовой пояс: UTC + 5



Вы не можете начинать темы
Вы не можете отвечать на сообщения
Вы не можете редактировать свои сообщения
Вы не можете удалять свои сообщения
Вы не можете голосовать в опросах
Вы не можете прикреплять файлы к сообщениям
Вы не можете скачивать файлы