Кит / The whale (Олрик Райли / Alrick Riley) [2013, Великобритания, Драма, приключения, HDTVRip] VO (datynet) + Original Eng

Ответить на тему
 

Suxrob89 ®

Стаж: 7 лет 4 месяца

Сообщений: 933

Симпатии: 564

-Кит / The whale- Страна: Великобритания
Жанр: Драма, приключения
Год выпуска: 2013
Продолжительность: 01:26:54
Перевод: Одноголосый закадровый [datynet]
Cубтитры: нет
Оригинальная аудиодорожка: английский-Режиссер: Олрик Райли / Alrick Riley-В ролях: Чарльз Фернесс, Мартин Шин, Джонас Армстронг, Адам Рэйнер, Жолион Цой, Джасса Ахлувалиа, Дэвид Гяси, Джон Бойега, Фердинанд Кингсли, Пол Кэй-Описание: Драма о роковом путешествии китобойного судна «Эссекс», которое было атаковано кашалотом в 1820 году, оставив команду бороться за выживание в трёх маленьких лодках. Посреди Тихого океана эти люди должны решить, плыть ли к ближайшим островам в тысяче миль к западу или отправиться в грандиозное путешествие почти за три тысячи миль, чтобы достичь американского материка. Этот инцидент вдохновил Германа Мелвилла на написание в 1851 году романа «Моби Дик».- -Качество видео: HDTVRip
Формат видео: AVI
Видео: XviD, 1850 kb/s, 25,000fps, 720x400
Аудио#1: MP3, 44,1 KHz, 192 kb/s, (2 ch) [Russian]
Аудио#2: AC3, 48.0 KHz, 192 kb/s, (2 ch) [English]

MediaInfo

Общее
Полное имя : C:\Раздачи\The.whale.2013.L1.HDTVRip.1400Mb.avi
Формат : AVI
Формат/Информация : Audio Video Interleave
Размер файла : 1,36 Гбайт
Продолжительность : 1 ч. 26 м.
Общий поток : 2248 Кбит/сек
Программа кодирования : VirtualDubMod 1.5.10.3 | www.virtualdub-fr.org || (build 2550/release)
Библиотека кодирования : VirtualDubMod build 2550/release
Видео
Идентификатор : 0
Формат : MPEG-4 Visual
Профиль формата : Advanced [email protected]
Параметр BVOP формата : 1
Параметр QPel формата : Нет
Параметр GMC формата : Без точки перехода
Параметр матрицы формата : Выборочная
Идентификатор кодека : XVID
Идентификатор кодека/Подсказка : XviD
Продолжительность : 1 ч. 26 м.
Битрейт : 1850 Кбит/сек
Ширина : 720 пикселей
Высота : 400 пикселей
Соотношение сторон : 16:9
Частота кадров : 25,000 кадров/сек
Цветовое пространство : YUV
Субдискретизация насыщенности : 4:2:0
Битовая глубина : 8 бит
Тип развёртки : Прогрессивная
Метод сжатия : С потерями
Бит/(Пиксели*Кадры) : 0.257
Размер потока : 1,12 Гбайт (82%)
Библиотека кодирования : XviD 1.2.1 (UTC 2008-12-04)
Аудио #1
Идентификатор : 1
Формат : MPEG Audio
Версия формата : Version 1
Профиль формата : Layer 3
Идентификатор кодека : 55
Идентификатор кодека/Подсказка : MP3
Продолжительность : 1 ч. 26 м.
Вид битрейта : Постоянный
Битрейт : 192 Кбит/сек
Каналы : 2 канала
Частота : 44,1 КГц
Метод сжатия : С потерями
Размер потока : 119 Мбайт (9%)
Выравнивание : Разделение по промежуткам
Продолжительность промежутка : 40 мс. (1,00 видеокадр)
Время предзагрузки промежутка : 500 мс.
Аудио #2
Идентификатор : 2
Формат : AC-3
Формат/Информация : Audio Coding 3
Расширение режима : CM (complete main)
Параметр Endianness формата : Big
Идентификатор кодека : 2000
Продолжительность : 1 ч. 26 м.
Вид битрейта : Постоянный
Битрейт : 192 Кбит/сек
Каналы : 2 канала
Расположение каналов : Front: L R
Частота : 48,0 КГц
Битовая глубина : 16 бит
Метод сжатия : С потерями
Размер потока : 119 Мбайт (9%)
Выравнивание : Разделение по промежуткам
Продолжительность промежутка : 40 мс. (1,00 видеокадр)
Время предзагрузки промежутка : 500 мс.

Скриншот c названием фильма

Скриншоты

Создавать темы 25-Янв-2014 07:43

[Профиль]  [ЛС] 
Показать сообщения:    
Ответить на тему

Текущее время: 13-Дек 06:22

Часовой пояс: UTC + 5



Вы не можете начинать темы
Вы не можете отвечать на сообщения
Вы не можете редактировать свои сообщения
Вы не можете удалять свои сообщения
Вы не можете голосовать в опросах
Вы не можете прикреплять файлы к сообщениям
Вы не можете скачивать файлы