Кумба / Khumba (Энтони Силверстон) [2013, мультфильм, приключения, семейный, HDRip] Dub [лицензия]

Ответить на тему
 

Suxrob89 ®

Стаж: 7 лет 2 месяца

Сообщений: 933

Симпатии: 564

- -Кумба / Khumba-«Half a zebra, a whole lot of adventure!»- Год выпуска: 2013
Производство: ЮАР
Жанр: Мультфильм, Комедия, Приключения, Cемейный
Перевод: Дублированный [лицензия]
Язык субтитров: Отсутствуют
Продолжительность: 01:25:18-Дата мировой премьеры: 8 сентября 2013
Дата российской премьеры: 3 апреля 2014, «Люксор»
Дата украинской премьеры: 3 апреля 2014, «Ukrainian Film Distribution»-Режиссер: Энтони Силверстон
Актеры: Джейк Т. Остин, Лиам Нисон, Стив Бушеми, Анна-София Робб, Лоренс Фишбёрн, Грег Эллис, Ричард Э. Грант, Кэтрин Тейт, Чарльз Адлер, Ди Брэдли Бейкер-Описание:
Зебра Кумба с самого рождения был посмешищем всего стада из-за того, что родился наполовину полосатым, а наполовину белым. Хуже того, когда началась Великая Засуха, сородичи решили, что он проклят, и в нем причина всех бед. Стадо изгнало Кумбу, и даже отец отвернулся от него! Отважная полуполосатая зебра отправляется в опасные и веселые приключения, чтобы найти недостающие полоски и заслужить уважение семьи…- -Качество: HDRip
Формат: AVI
Видео: 720x304 (2.37:1), 23.976 fps, XviD build 47 ~1997 kbps avg, 0.38 bit/pixel
Звук: 48 kHz, AC3 Dolby Digital, 3/2 (L,C,R,l,r) + LFE ch, ~448 kbps
Субтитры: отсутствуют

Подробные технические данные

Общее
Формат                                   : AVI
Формат/Информация                        : Audio Video Interleave
Размер файла                             : 1,46 Гбайт
Продолжительность                        : 1 ч. 25 м.
Общий поток                              : 2455 Кбит/сек
Программа кодирования                    : VirtualDubMod 1.5.10.2 (build 2540/release)
Примечание                               : The Jolly Roger Release Group by http://pirat.ca
Видео
Идентификатор                            : 0
Формат                                   : MPEG-4 Visual
Профиль формата                          : Advanced [email protected]
Параметр BVOP формата                    : 2
Параметр QPel формата                    : Нет
Параметр GMC формата                     : Без точки перехода
Параметр матрицы формата                 : Default (MPEG)
Идентификатор кодека                     : XVID
Идентификатор кодека/Подсказка           : XviD
Продолжительность                        : 1 ч. 25 м.
Битрейт                                  : 1998 Кбит/сек
Ширина                                   : 720 пикселей
Высота                                   : 304 пикселя
Соотношение сторон                       : 2,35:1
Частота кадров                           : 23,976 кадра/сек
Цветовое пространство                    : YUV
Субдискретизация насыщенности            : 4:2:0
Битовая глубина                          : 8 бит
Тип развёртки                            : Прогрессивная
Метод сжатия                             : С потерями
Бит/(Пиксели*Кадры)                      : 0.381
Размер потока                            : 1,19 Гбайт (81%)
Библиотека кодирования                   : XviD 1.2.0.dev47 (UTC 2006-11-01)
Аудио
Идентификатор                            : 1
Формат                                   : AC-3
Формат/Информация                        : Audio Coding 3
Расширение режима                        : CM (complete main)
Параметр Endianness формата              : Big
Идентификатор кодека                     : 2000
Продолжительность                        : 1 ч. 25 м.
Вид битрейта                             : Постоянный
Битрейт                                  : 448 Кбит/сек
Каналы                                   : 6 каналов
Расположение каналов                     : Front: L C R, Side: L R, LFE
Частота                                  : 48,0 КГц
Битовая глубина                          : 16 бит
Метод сжатия                             : С потерями
Размер потока                            : 273 Мбайт (18%)
Выравнивание                             : Разделение по промежуткам
Продолжительность промежутка             : 42  мс. (1,00 видеокадр)
Время предзагрузки промежутка            : 500  мс.

Скриншот c названием фильма

Скриншоты

Создавать темы 26-Янв-2014 05:22

[Профиль]  [ЛС] 

19ян73

Стаж: 5 лет 10 месяцев

Сообщений: 133

Симпатии: 2

В шапке 8 сидов!!! и не один не раздаёт,или "спокойной ночи" смотрят???

Создавать темы 26-Янв-2014 20:30

[Профиль]  [ЛС] 

Far

Стаж: 3 года 11 месяцев

Сообщений: 2

спасибо!

Создавать темы 16-Фев-2014 20:53

[Профиль]  [ЛС] 

LissMon

Стаж: 4 года 11 месяцев

Сообщений: 30

раздайте плиз!

Создавать темы 07-Авг-2014 17:50

[Профиль]  [ЛС] 

LissMon

Стаж: 4 года 11 месяцев

Сообщений: 30

раздаааайтеееее!!!!плииииизззззз!!!!

Создавать темы 07-Авг-2014 17:52

[Профиль]  [ЛС] 

Ирина

Стаж: 3 года 9 месяцев

Сообщений: 57

Симпатии: 11

СПА-СИ-БО!!! У меня этот мультик был на внешнем диске, а он "сдох". Пришлось повторно качать.

Создавать темы 08-Мар-2016 20:44

[Профиль]  [ЛС] 
Показать сообщения:    
Ответить на тему

Текущее время: 21-Окт 21:04

Часовой пояс: UTC + 5



Вы не можете начинать темы
Вы не можете отвечать на сообщения
Вы не можете редактировать свои сообщения
Вы не можете удалять свои сообщения
Вы не можете голосовать в опросах
Вы не можете прикреплять файлы к сообщениям
Вы не можете скачивать файлы