Одержимые смертью / Shigurui (Хамасаки Хироси) [TV] [12 из 12] [без хардсаба] [JAP+SUB+RUS] [2007., самурайский боевик, история, драма. BDRip] [720p]

Страницы :  1, 2  След.

Ответить на тему
 

Phantomhive ®

Стаж: 4 года 6 месяцев

Сообщений: 218

Симпатии: 10

Одержимые смертьюShiguruiCrazy for Death- Год выпуска: 2007
Страна: Япония
Жанр: Самурайский боевик, история, драма
Продолжительность: ТВ (12 эп.), 25 мин
Перевод: Любительский (одноголосый) DeMon
Русские субтитры: есть (софтсаб) fedor & TJ-Режиссер: Хамасаки Хироси
Снято по манге: Одержимые смертью
Автор оригинала: Нандзё Норио
Перевод: Рус. Озв. - Demon / SoftSub
Студия: -Информационные ссылки:World Art-Описание: На турнире, устроенном Таданагой Токугавой, жестоким даймё Суруги, бойцы станут сражаться боевым оружием. Это приведет к большим потерям среди мечников, но что за беда? Правитель алчет величественного и кровавого зрелища. К удивлению зрителей, среди прочих самураев в списках значатся два искалеченных бойца – однорукий Генносукэ Фудзики и слепой Ирако Сэйген: оба они мастера школы Ивамото Когэна, давние знакомые и давние соперники...-Качество: BDRip
Формат: MKV
Видео кодек: H.264
Аудио кодек: AC3
Видео: 1280x720 px, 23.976 fps, ~2 311 Kbps, x264 AVC L4.1
Аудио: RU & JP: AC3, 2 ch, 448 kbps, 48 kHz;-

Подробные тех. данные

General
Unique ID : 243073365727092360244101905475630461800 (0xB6DE3A35295661BD8B44875E0BEEF368)
Complete name : E:\Одержимые Смертью\Shigurui.ep.01.BDRip.720p.AC3.x264-DeMon.mkv
Format : Matroska
Format version : Version 2
File size : 558 MiB
Duration : 23mn 51s
Overall bit rate mode : Variable
Overall bit rate : 3 272 Kbps
Encoded date : UTC 2010-03-15 12:00:40
Writing application : mkvmerge v2.7.0 ('Do It Again') built on Apr 15 2009 00:27:10
Writing library : libebml v0.7.7 + libmatroska v0.8.1
Attachment : Yes
Video
ID : 1
Format : AVC
Format/Info : Advanced Video Codec
Format profile : [email protected]
Format settings, CABAC : Yes
Format settings, ReFrames : 9 frames
Codec ID : V_MPEG4/ISO/AVC
Duration : 23mn 51s
Bit rate mode : Variable
Bit rate : 2 375 Kbps
Maximum bit rate : 25.0 Mbps
Width : 1 280 pixels
Height : 720 pixels
Display aspect ratio : 16:9
Frame rate : 23.976 fps
Color space : YUV
Chroma subsampling : 4:2:0
Bit depth : 8 bits
Scan type : Progressive
Bits/(Pixel*Frame) : 0.107
Stream size : 394 MiB (71%)
Title : Shigurui (Dead Franzy) Ep. 1 - Sunpu Castle Game Tournament [Encoded by DeMon]
Writing library : x264 core 89 r1471kMod 1144615
Encoding settings : cabac=1 / ref=9 / deblock=1:-2:-1 / analyse=0x3:0x133 / me=umh / subme=10 / psy=1 / psy_rd=0.60:0.60 / mixed_ref=1 / me_range=12 / chroma_me=1 / trellis=2 / 8x8dct=1 / cqm=0 / deadzone=21,11 / fast_pskip=0 / chroma_qp_offset=-4 / threads=2 / sliced_threads=0 / nr=0 / decimate=0 / interlaced=0 / constrained_intra=0 / bframes=3 / b_pyramid=2 / b_adapt=2 / b_bias=0 / direct=3 / wpredb=1 / wpredp=2 / keyint=250 / keyint_min=25 / scenecut=40 / intra_refresh=0 / rc_lookahead=100 / rc=2pass / mbtree=1 / bitrate=2375 / ratetol=1.0 / qcomp=0.60 / qpmin=10 / qpmax=51 / qpstep=4 / cplxblur=20.0 / qblur=0.5 / vbv_maxrate=25000 / vbv_bufsize=23000 / ip_ratio=1.40 / aq=2:1.20 / pulldown=0 / nal_hrd=vbr
Language : Japanese
Default : Yes
Forced : No
Audio #1
ID : 2
Format : AC-3
Format/Info : Audio Coding 3
Mode extension : CM (complete main)
Codec ID : A_AC3
Duration : 23mn 51s
Bit rate mode : Constant
Bit rate : 448 Kbps
Channel(s) : 2 channels
Channel positions : Front: L R
Sampling rate : 48.0 KHz
Bit depth : 16 bits
Compression mode : Lossy
Stream size : 76.5 MiB (14%)
Title : Russian - AC3 - 2 ch, 48 kHz, 448 kbps
Language : Russian
Default : Yes
Forced : No
Audio #2
ID : 3
Format : AC-3
Format/Info : Audio Coding 3
Mode extension : CM (complete main)
Codec ID : A_AC3
Duration : 23mn 51s
Bit rate mode : Constant
Bit rate : 448 Kbps
Channel(s) : 2 channels
Channel positions : Front: L R
Sampling rate : 48.0 KHz
Bit depth : 16 bits
Compression mode : Lossy
Stream size : 76.5 MiB (14%)
Title : Orginal - AC3 - 2 ch, 48 kHz, 448 kbps
Language : Japanese
Default : No
Forced : No
Text #1
ID : 4
Format : ASS
Codec ID : S_TEXT/ASS
Codec ID/Info : Advanced Sub Station Alpha
Compression mode : Lossless
Title : Russian - Comments
Language : Russian
Default : Yes
Forced : No
Text #2
ID : 5
Format : ASS
Codec ID : S_TEXT/ASS
Codec ID/Info : Advanced Sub Station Alpha
Compression mode : Lossless
Title : Russian - Full Sub
Language : Russian
Default : No
Forced : No

Доп. информация

Историческая справка:
Замок Сумпу
Правители провинции Суруга находились в замке Сумпу (в настоящее время - часть города Сидзуока), который вместе с замком Осака считался одним из наиболее важных фортификационных сооружений сёгуната, не считая Эдо (сейчас - Токио). Замок Сумпу обычно упоминается в связи с Токугава Иэясу (основатель сёгуната Токугава и первый сёгун), который, оставив пост сёгуна, поселился и скончался там (в 1616 г.)
Токугава Таданага (1606 - 1633)
Реально существовавший человек. Внук Иэясу (первого сёгуна Токугава), сын Хидетады (второго сёгуна Токугава)и младший барт Иэмицу (третьего сёгуна Токугава). Часто упоминается как дайнагон (главный советник) Суруги. Был назначен даймё (феодальный правитель) Суруги в 1624. Два года спустя он убил слугу и совершил множество других проступков, вследствие чего был смещён с должности. Был вынужден cовершить сэппуку в 1633, находясь под арестом.
Примечание к первой серии:
Обратите внимание, что в сцене сэппуку Таданаги показано, как он тянется к вееру, что лежит перед ним. Это связано со тем, что в период Эдо сэппуку рассматривалось как высшая степень наказания для самураев и благородного сословия. В случаях, когда сэппуку должны были совершить лица, которым не доверяли, которые были слишком опасны либо не хотели совершать сэппуку, то кинжал для сэппуку (кусунгобу) заменялся у них на веер, и фактически сэппуку происходило путем обезглавливания.
Сцена уговора Таданаги отказаться от использования в поединках настоящих мечей.
Слуга, уговаривавший Таданагу, осуществил особую форму сэппуку под названием "кагебара" ("теневой живот"). Первоначально это был ритуал, берущий начало из японского театра кукол и кабуки, где актер, тайно разрезав себе живот, выходил на сцену играть, замотав рану, так что публика не догадывалась о произошедшем.
Примечание ко второй серии:
Адзуки - фасоль лучистая, или фасоль адзуки. Широко распространена в Японии как сельскохозяйственная продовольственная культура.
"Ёдарэ-адзуки - церемония при поступлении в школу Коган-рю, на лоб человеку приклеивали фасоль, а учитель разрубал её крест-накрест."
Семицветик - в оригинале звучит "нанакуса". Нанакуса можно перевести как "семь растений (травок) весны", традиционное блюдо, употребляемое в Японии утром 7 января
(информация из Википедии):
1) омежник водяной
2) пастушья сумка
3) сушеница (жабник)
4) песчанка
5) бородавник
6) турнепс
7) дайкон

Эпизоды

01. Сунпу Цастле Гаме Тоурнамент
02. Слоббер Адзуки
03. Камаитачи
04. Чилдреньс Сонг
05. Сецрет Сщорд Инструцтион
06. Биртхинг Цры
07. Фанг
08. Оутбурст оф Црицкетс Чирпинг
09. Тигер Чилд
10. Кенгёу Пунишмент Мансион
11. Моонлигхтхттп
12. Мумё Саканагаре

Скриншоты



Последний раз редактировалось: Phantomhive (2014-01-26 14:39), всего редактировалось 2 раз(а)

Создавать темы 26-Янв-2014 08:21

[Профиль]  [ЛС] 

Бездущный

Стаж: 4 года

Сообщений: 73

Симпатии: 10

раздача будет?

Создавать темы 26-Янв-2014 09:57

[Профиль]  [ЛС] 

Phantomhive ®

Стаж: 4 года 6 месяцев

Сообщений: 218

Симпатии: 10

да конешна

Создавать темы 26-Янв-2014 10:05

[Профиль]  [ЛС] 

Rambotnik

Стаж: 6 лет 7 месяцев

Сообщений: 1274

Симпатии: 81

Надпись о Вашем собственном релизе не соответствует упоминанию NNPersona в районе постера, что смахивает на плагиат. Про озвучку - подробнее. Одноголосая, судя по всему? Так и напишите. Чьи сабы - тоже отметтьте.

Создавать темы 26-Янв-2014 10:59

[Профиль]  [ЛС] 

Phantomhive ®

Стаж: 4 года 6 месяцев

Сообщений: 218

Симпатии: 10

Доделую

Создавать темы 26-Янв-2014 12:31

[Профиль]  [ЛС] 

Phantomhive ®

Стаж: 4 года 6 месяцев

Сообщений: 218

Симпатии: 10

Проверте всё нормално

Создавать темы 26-Янв-2014 14:38

[Профиль]  [ЛС] 

Бездущный

Стаж: 4 года

Сообщений: 73

Симпатии: 10

Phantomhive, когда на раздачу встанеш?

Создавать темы 26-Янв-2014 17:55

[Профиль]  [ЛС] 

Phantomhive ®

Стаж: 4 года 6 месяцев

Сообщений: 218

Симпатии: 10

Бездущный, я чота не успеваю походу

Создавать темы 27-Янв-2014 21:37

[Профиль]  [ЛС] 

Бездущный

Стаж: 4 года

Сообщений: 73

Симпатии: 10

постарайся быстрее

Создавать темы 28-Янв-2014 11:52

[Профиль]  [ЛС] 

Phantomhive ®

Стаж: 4 года 6 месяцев

Сообщений: 218

Симпатии: 10

РАЗДАЮ ВЕЧЕРОМ 20:00

Создавать темы 28-Янв-2014 21:44

[Профиль]  [ЛС] 

Бездущный

Стаж: 4 года

Сообщений: 73

Симпатии: 10

раздачи стоит ждать или нет?

Создавать темы 29-Янв-2014 20:35

[Профиль]  [ЛС] 

utakata

Стаж: 5 лет 11 месяцев

Сообщений: 70

Симпатии: 2

Оппа гангнам) Тоже качал с рутрека?) На раздаче))

Создавать темы 29-Янв-2014 22:33

[Профиль]  [ЛС] 

Бездущный

Стаж: 4 года

Сообщений: 73

Симпатии: 10

Phantomhive, пораньше не могиш встать на раздачу?

Создавать темы 29-Янв-2014 23:05

[Профиль]  [ЛС] 

Бездущный

Стаж: 4 года

Сообщений: 73

Симпатии: 10

да раздача будет или нет?

Создавать темы 07-Фев-2014 23:10

[Профиль]  [ЛС] 

Phantomhive ®

Стаж: 4 года 6 месяцев

Сообщений: 218

Симпатии: 10

я раздаю каждий ден но незнаю почему вы не можите скачат

Создавать темы 07-Фев-2014 23:43

[Профиль]  [ЛС] 
Показать сообщения:    
Ответить на тему

Текущее время: 13-Дек 18:17

Часовой пояс: UTC + 5



Вы не можете начинать темы
Вы не можете отвечать на сообщения
Вы не можете редактировать свои сообщения
Вы не можете удалять свои сообщения
Вы не можете голосовать в опросах
Вы не можете прикреплять файлы к сообщениям
Вы не можете скачивать файлы