Друзья друзей (Артем Аксененко, Араик Оганесян) [2013 г., Комедия, SATRip]

Ответить на тему
 

Slapper ®

Стаж: 3 года 10 месяцев

Сообщений: 2193

Симпатии: 213

Друзья друзей-"Бодрая комедия"- Год выпуска: 2013
Жанр: Комедия
Продолжительность: 1:26:44-Режиссер: Артем Аксененко, Араик Оганесян-В ролях: Нюша Шурочкина, Гарик Харламов, Юрий Стоянов, Николай Наумов, Александр Ильин мл., Тимур Батрутдинов, Александр Молочников, Андрей Гайдулян, Олег Верещагин, Александр Булатов-Описание: В канун Нового года пересекаются истории промоутера, впервые оставшегося дома с пятилетним ребенком, трех музыкантов из филармонии, решившихся на ограбление сурового бизнесмена, на домашнюю вечеринку к которому их отправил тот самый промоутер, и бедного студента, пригласившего на первое свидание в дорогой ресторан дочку того самого сурового бизнесмена. В результате, каждый из героев попадет в нелепые, пикантные, опасные, но все равно очень смешные ситуации, выбраться из которых им, конечно, помогут, друзья…-Бюджет: $2 000 000
Премьера(мир): 1 января 2014
Премьера(РФ): 1 января 2014
Рейтинг (КиноПоиск):
-Качество: SATRip
Формат: AVI
Видео кодек: XviD
Аудио кодек: AC3
Видео: MPEG4, 720x384, 1882 kbps, 25 fps
Аудио: AC3, 48.0 kHz, 384 kbps, 5.1

MI

Общее
Полное имя : D:\Торрент-файлы (загрузки)\druzja.druzej.2013.SATRip.avi
Формат : AVI
Формат/Информация : Audio Video Interleave
Размер файла : 1,37 Гбайт
Продолжительность : 1 ч. 26 м.
Общий поток : 2266 Кбит/сек
Программа кодирования : VirtualDubMod 1.5.10.3 | www.virtualdub-fr.org || (build 2550/release)
Библиотека кодирования : VirtualDubMod build 2550/release
Видео
Идентификатор : 0
Формат : MPEG-4 Visual
Профиль формата : Advanced Simple@L5
Параметр BVOP формата : 2
Параметр QPel формата : Нет
Параметр GMC формата : Без точки перехода
Параметр матрицы формата : Default (MPEG)
Идентификатор кодека : XVID
Идентификатор кодека/Подсказка : XviD
Продолжительность : 1 ч. 26 м.
Битрейт : 1873 Кбит/сек
Ширина : 720 пикселей
Высота : 384 пикселя
Соотношение сторон : 1,85:1
Частота кадров : 25,000 кадров/сек
Цветовое пространство : YUV
Субдискретизация насыщенности : 4:2:0
Битовая глубина : 8 бит
Тип развёртки : Прогрессивная
Метод сжатия : С потерями
Бит/(Пиксели*Кадры) : 0.271
Размер потока : 1,13 Гбайт (83%)
Библиотека кодирования : XviD 1.2.1 (UTC 2008-12-04)
Аудио
Идентификатор : 1
Формат : AC-3
Формат/Информация : Audio Coding 3
Расширение режима : CM (complete main)
Параметр Endianness формата : Big
Идентификатор кодека : 2000
Продолжительность : 1 ч. 26 м.
Вид битрейта : Постоянный
Битрейт : 384 Кбит/сек
Каналы : 6 каналов
Расположение каналов : Front: L C R, Side: L R, LFE
Частота : 48,0 КГц
Битовая глубина : 16 бит
Метод сжатия : С потерями
Размер потока : 238 Мбайт (17%)
Выравнивание : Разделение по промежуткам
Продолжительность промежутка : 40 мс. (1,00 видеокадр)
Время предзагрузки промежутка : 500 мс.

Скриншоты




Создавать темы 26-Янв-2014 10:30

[Профиль]  [ЛС] 

Топик был перенесен из форума Фильмы за 2014 (новинки) в форум CamRip\Telesync\SATRip\TVRip

victor0778

Создавать темы 26-Янв-2014 11:12

 

Ахмад салих

Стаж: 4 года 3 месяца

Сообщений: 117

Симпатии: 26

Хороший фильм посмотрите все

Создавать темы 26-Янв-2014 11:15

[Профиль]  [ЛС] 

Slapper ®

Стаж: 3 года 10 месяцев

Сообщений: 2193

Симпатии: 213

около 4000 скачек на российских трекерах

Создавать темы 26-Янв-2014 12:01

[Профиль]  [ЛС] 

Slapper ®

Стаж: 3 года 10 месяцев

Сообщений: 2193

Симпатии: 213

качество хорошее

Создавать темы 26-Янв-2014 12:01

[Профиль]  [ЛС] 

Islamchik_11

Стаж: 3 года 9 месяцев

Сообщений: 3

Дайте скорость плиз)

Создавать темы 26-Янв-2014 12:05

[Профиль]  [ЛС] 

Slapper ®

Стаж: 3 года 10 месяцев

Сообщений: 2193

Симпатии: 213

почему то не отдает от меня , хотя статус раздается

Создавать темы 26-Янв-2014 12:24

[Профиль]  [ЛС] 

Slapper ®

Стаж: 3 года 10 месяцев

Сообщений: 2193

Симпатии: 213

http://tas-ix.net/viewtopic.php?t=86900

Создавать темы 26-Янв-2014 12:26

[Профиль]  [ЛС] 

Старый Дядька

Стаж: 5 лет

Сообщений: 566

Симпатии: 400

Дорогой Slapper.
Вы говорите что качество хорошее.
Но на трекере есть качество лучше.
Друзья Друзей (Артем Аксененко, Араик Оганесян) [2013 г., Комедия, WEBRip] [Чистый Звук]
Убедитесь в этом сами.

Создавать темы 26-Янв-2014 12:56

[Профиль]  [ЛС] 

Slapper ®

Стаж: 3 года 10 месяцев

Сообщений: 2193

Симпатии: 213

valeri-mvv-101, я не знаю, наверно проблема с трекером, я 3 раза вбивал в поиск а он не находил похожих... и еще качество здесь практически одинаковое

Создавать темы 26-Янв-2014 13:02

[Профиль]  [ЛС] 

Slapper ®

Стаж: 3 года 10 месяцев

Сообщений: 2193

Симпатии: 213

странно, почему то от меня радача не идет...

Создавать темы 26-Янв-2014 13:03

[Профиль]  [ЛС] 
Показать сообщения:    
Ответить на тему

Текущее время: 22-Сен 07:37

Часовой пояс: UTC + 5



Вы не можете начинать темы
Вы не можете отвечать на сообщения
Вы не можете редактировать свои сообщения
Вы не можете удалять свои сообщения
Вы не можете голосовать в опросах
Вы не можете прикреплять файлы к сообщениям
Вы не можете скачивать файлы