Афтершок / Aftershock (Николас Лопез / Nicolás López) [2012г | Триллер, криминал, приключения | BDRip-AVC] Лицензия

Ответить на тему
 

Suxrob89 ®

Стаж: 7 лет 1 месяц

Сообщений: 933

Симпатии: 564

-Афтершок / Aftershock-«The only thing more terrifying than Mother Nature is human nature.»- Год выпуска: 2012
Страна: США, Чили / Cross Creek Pictures
Жанр: триллер, криминал, приключения
Продолжительность: 01:29:43
Перевод: Профессиональный (многоголосый закадровый) лицензия-Режиссер: Николас Лопез-В ролях: Элай Рот, Андреа Ошварт, Эриель Леви, Николас Мартинез, Лоренца Иззо, Наташа Яровенко, Селена Гомес, Игнасия Алламанд, Дайана Амиго, Пас Баскуньян-Описание: Находясь в Чили, группа путешественников посещает подземный ночной клуб в тот самый момент, когда начинается мощное землетрясение. Выбравшись на поверхность, они тут же понимают, что кошмар для них только начался.- -Качество: BDRip-AVC [Aftershock.2012.1080p.BluRay.AVC.DTS-HD.MA.5.1-PublicHD]
Формат: MKV
Видео: х.264, 1024x576 (16:9), 23.976 fps, 2609 Кbps, 0.184 bit/pixel
Аудио#1: 48 kHz, AC3 Dolby Digital, 3/2 (L,C,R,l,r) + LFE ch, 448.00 kbps | RUS
Аудио#2: 48 kHz, AC3 Dolby Digital, 3/2 (L,C,R,l,r) + LFE ch, 448.00 kbps | ENG

Media info

D:\Aftershock.2012.D.BDRip.mkv
General
Unique ID : 237304094896599624345498028428968003504 (0xB2871B31CDF715F8828733861F7307B0)
Complete name : D:\Aftershock.2012.D.BDRip.mkv
Format : Matroska
Format version : Version 4 / Version 2
File size : 2.18 GiB
Duration : 1h 29mn
Overall bit rate : 3 502 Kbps
Movie name : HELLYWOOD - rip by potroks
Encoded date : UTC 2014-01-22 16:23:03
Writing application : mkvmerge v5.9.0 ('On The Loose') built on Dec 15 2012 16:39:58
Writing library : libebml v1.3.0 + libmatroska v1.4.0
Video #1
ID : 1
Format : AVC
Format/Info : Advanced Video Codec
Format profile : [email protected]
Format settings, CABAC : Yes
Format settings, ReFrames : 13 frames
Codec ID : V_MPEG4/ISO/AVC
Duration : 1h 29mn
Bit rate : 2 609 Kbps
Width : 1 024 pixels
Height : 576 pixels
Display aspect ratio : 16:9
Frame rate mode : Constant
Frame rate : 23.976 fps
Color space : YUV
Chroma subsampling : 4:2:0
Bit depth : 8 bits
Scan type : Progressive
Bits/(Pixel*Frame) : 0.184
Stream size : 1.58 GiB (72%)
Title : Aftershock
Writing library : x264 core 130 r2273 b3065e6
Encoding settings : cabac=1 / ref=13 / deblock=1:-2:-2 / analyse=0x3:0x133 / me=umh / subme=11 / psy=1 / psy_rd=0.98:0.00 / mixed_ref=1 / me_range=32 / chroma_me=1 / trellis=2 / 8x8dct=1 / cqm=0 / deadzone=21,11 / fast_pskip=0 / chroma_qp_offset=-2 / threads=9 / lookahead_threads=2 / sliced_threads=0 / nr=0 / decimate=1 / interlaced=0 / bluray_compat=0 / constrained_intra=0 / bframes=14 / b_pyramid=2 / b_adapt=2 / b_bias=0 / direct=3 / weightb=1 / open_gop=0 / weightp=2 / keyint=250 / keyint_min=23 / scenecut=40 / intra_refresh=0 / rc_lookahead=150 / rc=2pass / mbtree=1 / bitrate=2609 / ratetol=1.0 / qcomp=0.70 / qpmin=0 / qpmax=69 / qpstep=4 / cplxblur=20.0 / qblur=0.5 / vbv_maxrate=20000 / vbv_bufsize=25000 / nal_hrd=none / ip_ratio=1.35 / aq=1:0.70
Language : English
Default : Yes
Forced : No
Audio #2
ID : 2
Format : AC-3
Format/Info : Audio Coding 3
Mode extension : CM (complete main)
Format settings, Endianness : Big
Codec ID : A_AC3
Duration : 1h 29mn
Bit rate mode : Constant
Bit rate : 448 Kbps
Channel(s) : 6 channels
Channel positions : Front: L C R, Side: L R, LFE
Sampling rate : 48.0 KHz
Bit depth : 16 bits
Compression mode : Lossy
Delay relative to video : 800ms
Stream size : 286 MiB (13%)
Title : MVO | DD 5.1 @ 448 kbps - R5
Language : Russian
Default : Yes
Forced : Yes
Audio #3
ID : 3
Format : AC-3
Format/Info : Audio Coding 3
Mode extension : CM (complete main)
Format settings, Endianness : Big
Codec ID : A_AC3
Duration : 1h 29mn
Bit rate mode : Constant
Bit rate : 448 Kbps
Channel(s) : 6 channels
Channel positions : Front: L C R, Side: L R, LFE
Sampling rate : 48.0 KHz
Bit depth : 16 bits
Compression mode : Lossy
Stream size : 286 MiB (13%)
Title : Original | DD 5.1 @ 448 kbps
Language : English
Default : No
Forced : No
Text #4
ID : 4
Format : UTF-8
Codec ID : S_TEXT/UTF8
Codec ID/Info : UTF-8 Plain Text
Language : English
Default : No
Forced : No

Скриншоты

Создавать темы 26-Янв-2014 14:00

[Профиль]  [ЛС] 

razor2011

Стаж: 5 лет

Сообщений: 227

Симпатии: 37

и здесь Селена Г

Создавать темы 26-Янв-2014 14:21

[Профиль]  [ЛС] 
Показать сообщения:    
Ответить на тему

Текущее время: 21-Сен 08:31

Часовой пояс: UTC + 5



Вы не можете начинать темы
Вы не можете отвечать на сообщения
Вы не можете редактировать свои сообщения
Вы не можете удалять свои сообщения
Вы не можете голосовать в опросах
Вы не можете прикреплять файлы к сообщениям
Вы не можете скачивать файлы