Котоура-сан / Kotoura-san (Ота Масахико) [TV] [12 из 12] [без хардсаба] [RUS(ext), JAP+SUB] [2013 г., комедия, романтика, драма, BDRip] [720p]

Ответить на тему
 

Alex_38 ®

Стаж: 5 лет 9 месяцев

Сообщений: 336

Симпатии: 37

- Год выпуска: 2013
Страна: Япония
Жанр: комедия, романтика, драма
Продолжительность: 12 эп. по 24 мин.
Выпуск: c 11.01.2013 по 29.03.2013-Перевод:
  • русские субтитры от General TAB & Kasumi & Schum & Tassadar (полные/вспомогательные) [1-9]
  • русские субтитры от Nika_Elrik & Brasco Схрон (полные/вспомогательные) [10-12]
  • озвучка одноголосая (муж.) от Rise (Genshiken) [1-9]
-Режиссер: Ота Масахико
Студия: AIC-Описание:
Непохожим на других всегда живется тяжко – в этом на горьком опыте убедилась Харука Котоура, с детства слышащая чужие мысли. Быть рядом с человеком, для которого ты словно открытая книга – нелегкое испытание. Даже родная мать его не выдержала и сбежала, бросив «чудовище» на попечение деда. Легко предсказать реакцию окружающих, когда те узнавали, с кем их свела судьба. Неудивительно, что Харуке приходилось часто менять учебные заведения, пока в 15 лет она не пришла в очередную старшую школу. Там девушка и поняла, наконец, что свет не без добрых людей!
Отнюдь не все вокруг нас – трусоватые эгоисты, что любят только себя. Например, Ёсихиза Манабэ куда больше любит девушек, а по богатству фантазии парень (к ужасу Котоуры) – просто гений. Он и другом Харуки стал, потому что мыслей не стесняется: ведь что естественно, то не безобразно! Для Юрико Мифунэ, президента школьного клуба эсперов, Котоура стала ответом на вопрос, который она долго ждала, у ее загадочного помощника Мурото свои мотивы, а для местной красавицы Хиёри Моритани новенькая стала злейшей подругой и лучшей соперницей… или наоборот? В общем, это и называется нормальной жизнью!
© Hollow, World Art-Информационные ссылки: AniDB || World Art || MAL-Качество: BDRip
Энкод: Winter - RG Pantheon
Тип видео: без хардсаба, без линковки
Формат: mkv
Видео: x264 (Hi10p), 1280x720, ~2500 Kbps, 23.976 fps
Аудио JAP: Vorbis, 48000Hz, ~256 Kbps, 2ch
Аудио RUS: AC3, 48000Hz, ~192 Kbps, 2ch (внешними файлами)
-

Список Эпизодов

01. Kotoura-san and Manabe-kun
02. The First......
03. So Happy, So Fun
04. Changing World
05. School Paradise?
06. Summer Vacation!
07. In This World, I...
08. It`s Not a Date
09. Everyone Is Around Me
10. But You`re Not Here
11. Stand By Me
12. The Things I Want to Tell You

Отличия от других раздач

http://tas-ix.net/viewtopic.php?t=74418 - BDRip

Подробные тех. данные

General
Unique ID                                : 179442495321356683822493971255336252523 (0x86FF5E14B58B9FD5BF4D6A3A4F8A346B)
Complete name                            : D:\Релизы\Собственные\Релизы\Kotoura-san [BD] [720p]\[Winter] Kotoura-san 01 [BDrip 1280x720 x264 Vorbis].mkv
Format                                   : Matroska
Format version                           : Version 2
File size                                : 471 MiB
Duration                                 : 23mn 47s
Overall bit rate mode                    : Variable
Overall bit rate                         : 2 765 Kbps
Encoded date                             : UTC 2013-06-09 19:22:36
Writing application                      : mkvmerge v2.9.8 ('C'est le bon') built on Aug 13 2009 12:49:06
Writing library                          : libebml v0.7.7 + libmatroska v0.8.1
Video
ID                                       : 1
Format                                   : AVC
Format/Info                              : Advanced Video Codec
Format profile                           : High [email protected]
Format settings, CABAC                   : Yes
Format settings, ReFrames                : 9 frames
Codec ID                                 : V_MPEG4/ISO/AVC
Duration                                 : 23mn 47s
Bit rate                                 : 2 454 Kbps
Width                                    : 1 280 pixels
Height                                   : 720 pixels
Display aspect ratio                     : 16:9
Frame rate mode                          : Constant
Frame rate                               : 23.976 fps
Color space                              : YUV
Chroma subsampling                       : 4:2:0
Bit depth                                : 10 bits
Scan type                                : Progressive
Bits/(Pixel*Frame)                       : 0.111
Stream size                              : 418 MiB (89%)
Writing library                          : x264 core 132 r2309 3b1f1f7
Encoding settings                        : cabac=1 / ref=9 / deblock=1:-2:-2 / analyse=0x3:0x133 / me=umh / subme=9 / psy=1 / psy_rd=0.90:0.00 / mixed_ref=1 / me_range=24 / chroma_me=1 / trellis=2 / 8x8dct=1 / cqm=0 / deadzone=21,11 / fast_pskip=1 / chroma_qp_offset=-2 / threads=6 / lookahead_threads=1 / sliced_threads=0 / nr=0 / decimate=0 / interlaced=0 / bluray_compat=0 / constrained_intra=0 / bframes=8 / b_pyramid=2 / b_adapt=2 / b_bias=0 / direct=1 / weightb=1 / open_gop=0 / weightp=2 / keyint=250 / keyint_min=23 / scenecut=40 / intra_refresh=0 / rc=crf / mbtree=0 / crf=15.7 / qcomp=0.70 / qpmin=9 / qpmax=40 / qpstep=4 / ip_ratio=1.40 / pb_ratio=1.30 / aq=1:0.90
Default                                  : No
Forced                                   : No
Audio
ID                                       : 2
Format                                   : Vorbis
Format settings, Floor                   : 1
Codec ID                                 : A_VORBIS
Duration                                 : 23mn 47s
Bit rate mode                            : Variable
Bit rate                                 : 256 Kbps
Channel(s)                               : 2 channels
Sampling rate                            : 48.0 KHz
Compression mode                         : Lossy
Stream size                              : 43.6 MiB (9%)
Writing library                          : libVorbis (Schaufenugget) (20101101 (Schaufenugget))
Language                                 : Japanese
Default                                  : Yes
Forced                                   : No

Создавать темы 26-Янв-2014 14:17

[Профиль]  [ЛС] 

Phantomhive

Стаж: 4 года 6 месяцев

Сообщений: 218

Симпатии: 10

озвучка одноголосая (муж.) от Rise (Genshiken) [1-9]
а где остолние озвучки

Создавать темы 30-Янв-2014 22:34

[Профиль]  [ЛС] 

Rambotnik

Стаж: 6 лет 7 месяцев

Сообщений: 1274

Симпатии: 81

А Вы видите заявленными 100500 озвучек?

Создавать темы 30-Янв-2014 22:36

[Профиль]  [ЛС] 

Азиз87

Стаж: 5 лет 1 месяц

Сообщений: 752

Симпатии: 143

Я смотрел со звуком от Кубы и ТриныД вроде норм все от 1-12 серий. Райз как то не попер.

Создавать темы 30-Янв-2014 22:44

[Профиль]  [ЛС] 

Phantomhive

Стаж: 4 года 6 месяцев

Сообщений: 218

Симпатии: 10

Rambotnik, вы меня не так поняли здес серии 12 а озвучка до 9тава серии а осталниее где?

Создавать темы 30-Янв-2014 23:11

[Профиль]  [ЛС] 

Rambotnik

Стаж: 6 лет 7 месяцев

Сообщений: 1274

Симпатии: 81

Будут.

Создавать темы 30-Янв-2014 23:14

[Профиль]  [ЛС] 

Phantomhive

Стаж: 4 года 6 месяцев

Сообщений: 218

Симпатии: 10

интиресно когда?

Создавать темы 30-Янв-2014 23:28

[Профиль]  [ЛС] 

Alex_38 ®

Стаж: 5 лет 9 месяцев

Сообщений: 336

Симпатии: 37

Phantomhive, уже скоро. "золотые" сабы, которые он ожидал недавно вышли полностью и были даже пофиксены)

Создавать темы 31-Янв-2014 18:55

[Профиль]  [ЛС] 

Phantomhive

Стаж: 4 года 6 месяцев

Сообщений: 218

Симпатии: 10

Alex_38, Привет я нашот про сабы они скоро или ждат нада!!!!

Создавать темы 03-Фев-2014 06:54

[Профиль]  [ЛС] 

Alex_38 ®

Стаж: 5 лет 9 месяцев

Сообщений: 336

Симпатии: 37

Phantomhive, сабы то давно вышли. Озвучку надо подождать... Да и еще пока Агленн подкорректирует... Имейте терпение...

Создавать темы 03-Фев-2014 22:23

[Профиль]  [ЛС] 
Показать сообщения:    
Ответить на тему

Текущее время: 17-Дек 22:53

Часовой пояс: UTC + 5



Вы не можете начинать темы
Вы не можете отвечать на сообщения
Вы не можете редактировать свои сообщения
Вы не можете удалять свои сообщения
Вы не можете голосовать в опросах
Вы не можете прикреплять файлы к сообщениям
Вы не можете скачивать файлы