Гарри Поттер и Белое Золото II / Harry Potter and the White Gold II (Дэвид Йэтс) [2012 г., Фэнтези, приключения, пародия, BDRip]

Ответить на тему
 

Slapper ®

Стаж: 4 года

Сообщений: 2193

Симпатии: 213

- Год выпуска: 2012
Страна: США, Великобритания
Жанр: Фэнтези, приключения, пародия
Продолжительность: 01:59:21
Перевод: полный дубляж (Перевод от "Gremlin Creative Studio")-Режиссер: Дэвид Йэтс
В ролях: Гарри Поттер, Рыжий Петух, Стерва Грэйнджер, Дарт Морт, Хагрид, Ленин и др.

Описание: Гарри Поттер и его верные друзья бродят по планете в наивных поисках белого порошка. Безденежье, отсутствие дозы, никчемный назойливый друг и требующая какой-то нежности девушка сменяются положительной новостью, которую ему говорит один старый знакомый, - у Темного Владыки есть целый склад белого золота! Несомненно это и становится целью очкастого сорвиголовы.
Тем временем Дарт Морт готовит ситхов для захвата власти в волшебном мире. А школа геев и лесбиянок Хогвартс - стратегически важное место для этой цели. Захватив ее, Повелитель ситхов сможет, наконец-таки, покончить со своей местью! Местью за жестокий обман с его усыновлением! И только один человек, слепо ведомый потребностью в дозе, может помешать ему. Только ОН способен спасти мир!
-Качество: BDRip
Формат: AVI-Видео кодек: XviD
Аудио кодек: MPEG Audio-Видео: 720x304, 1451 kbps, 23,98 fps
Аудио: MP3, 44 kHz, 256 kbps, Стерео

Доп.инфо

1. Перевод от "Gremlin Creative Studio", создателей "Гарри Поттер и Белое Золото" , т.е. там полно всякой ругани, мата и пошлости. Ввиду этого тем, кого не устраивает что-либо из вышесказанного, убедительная просьба НЕ КАЧАТЬ фильм, дабы не разводить демагогию в бестолковых постах.
2. Данный фильм является прямым продолжением предыдущей части! И заключительной частью для всей серии ГП от GCS! Ввиду этого предупреждаем: смотреть "ГП и Белое Золото 2" отдельно не имеет смысла! (Требуется знание сюжета, начиная от "ГП и Турнир Смерти".)

МедиаИнфо

Общее
Полное имя : D:\Торрент-файлы (загрузки)\Гарри Поттер(7.2) и Белое Золото 2_BDRip.400.avi
Формат : AVI
Формат/Информация : Audio Video Interleave
Размер файла : 1,42 Гбайт
Продолжительность : 1 ч. 59 м.
Общий поток : 1707 Кбит/сек
Программа кодирования : VirtualDubMod 1.5.4.1 (build 2178/release)
Библиотека кодирования : VirtualDubMod build 2178/release
Видео
Идентификатор : 0
Формат : MPEG-4 Visual
Профиль формата : Advanced [email protected]
Параметр BVOP формата : Нет
Параметр QPel формата : Нет
Параметр GMC формата : Без точки перехода
Параметр матрицы формата : Выборочная
Идентификатор кодека : XVID
Идентификатор кодека/Подсказка : XviD
Продолжительность : 1 ч. 59 м.
Битрейт : 1444 Кбит/сек
Ширина : 720 пикселей
Высота : 304 пикселя
Соотношение сторон : 2,35:1
Частота кадров : 23,976 кадра/сек
Цветовое пространство : YUV
Субдискретизация насыщенности : 4:2:0
Битовая глубина : 8 бит
Тип развёртки : Прогрессивная
Метод сжатия : С потерями
Бит/(Пиксели*Кадры) : 0.275
Размер потока : 1,20 Гбайт (85%)
Библиотека кодирования : XviD 64
Аудио
Идентификатор : 1
Формат : MPEG Audio
Версия формата : Version 1
Профиль формата : Layer 3
Режим : Joint stereo
Расширение режима : MS Stereo
Идентификатор кодека : 55
Идентификатор кодека/Подсказка : MP3
Продолжительность : 1 ч. 59 м.
Вид битрейта : Постоянный
Битрейт : 256 Кбит/сек
Каналы : 2 канала
Частота : 44,1 КГц
Метод сжатия : С потерями
Размер потока : 219 Мбайт (15%)
Выравнивание : Разделение по промежуткам
Продолжительность промежутка : 83 мс. (2,00 видеокадра)
Время предзагрузки промежутка : 500 мс.
Библиотека кодирования : LAME3.98r
Настройки программы : -m j -V 4 -q 2 -lowpass 19.7

Скриншоты



GREMLIN CREATIVE STUDIO

Создавать темы 26-Янв-2014 14:29

[Профиль]  [ЛС] 

Shax-Boz

Стаж: 4 года 3 месяца

Сообщений: 5

добавьте и прошлые серии

Создавать темы 26-Янв-2014 19:00

[Профиль]  [ЛС] 

Slapper ®

Стаж: 4 года

Сообщений: 2193

Симпатии: 213

Shax-Boz, завтра

Создавать темы 26-Янв-2014 20:47

[Профиль]  [ЛС] 

asdshka

Стаж: 3 года 11 месяцев

Сообщений: 3

эт типа гоблина?

Создавать темы 26-Янв-2014 23:23

[Профиль]  [ЛС] 

Slapper ®

Стаж: 4 года

Сообщений: 2193

Симпатии: 213

да это и есть гоблин

Создавать темы 27-Янв-2014 14:51

[Профиль]  [ЛС] 

bes_t

Стаж: 6 лет 7 месяцев

Сообщений: 74

Симпатии: 11

это не гоблин, а гремлин, но тоже тема

Создавать темы 27-Янв-2014 15:31

[Профиль]  [ЛС] 
Показать сообщения:    
Ответить на тему

Текущее время: 19-Ноя 13:39

Часовой пояс: UTC + 5



Вы не можете начинать темы
Вы не можете отвечать на сообщения
Вы не можете редактировать свои сообщения
Вы не можете удалять свои сообщения
Вы не можете голосовать в опросах
Вы не можете прикреплять файлы к сообщениям
Вы не можете скачивать файлы