Истории, сезон второй / Monogatari Series: Second Season (Симбо Акиюки) [TV+Special] [23+0 из 23+3] [без хардсаба] [RUS(ext),JAP+SUB] [2013 г., мистика, BDRip] [720p]

Страницы :  1, 2, 3  След.

Ответить на тему
 

Азиз87 ®

Стаж: 4 года 11 месяцев

Сообщений: 752

Симпатии: 143


- Год выпуска: 2013
Страна: Япония
Жанр: мистика
Продолжительность: 23+3 эп. по 25 мин.-Перевод:
  • русские субтитры от Timecraft & Shift & Eternal HARO (полные/вспомогательные)
    переводчик: To aru Evafan, редакторы: AleX_MytH, Libra, Xellos Slayer, тайм-код/оформление: DJATOM, караоке: Азиз87
-Режиссер: Симбо Акиюки
Студия:SHAFT-Описание:
То, о чем предупреждали провидцы, свершилось – Арараги-гарем окончательно сложился в серьезный женский коллектив, спаянный общей целью и высокой миссией! Второй сезон неповторимых «Историй» дает возможность лучше познакомиться с каждой из незаурядных девушек, окружающих «братца Коёми», ближе узнать их достоинства и недостатки и понять, почему одни неплохие вроде бы люди под грузом чувств и эмоций выпрямляются и становятся сильнее, а другие, увы, переступают роковую черту, из-за которой нет возврата.
Самому же главному герою с такой поддержкой можно расслабиться и заняться любимым делом (а что он любит, вы и так знаете). Вихрастый самурай может даже загулять в иных временах и пространствах - великолепная Хитаги, блистательная Цубаса и мудрая малышка Синобу сами разберутся, как с богами и демонами, так и между собой. При этом они, разумеется, сделают все, чтобы любимый господин и повелитель смог явиться в последний момент, рвануть на груди красную рубаху и спасти день. Парни – они же как дети, только дай катаной помахать! © Hollow,World Art-Информационные ссылки: AniDB || World Art || MAL
-Качество:BDRip
Формат: MKV [Winter - RG Pantheon]
Видео: x264 (Hi10p), 1280x720 (16:9), ~3000 Kbps, 23.976 fps
Аудио Japanese: Vorbis, 48000Hz, ~256 Kbps, 2ch
Аудио Russian: AAC, 48000Hz, ~320 Kbps, 2ch - Sadzurami & Nika Lenina

-

Подробные тех. данные:

General
Unique ID                   : 187115488564161912253325973952816622587 (0x8CC521DB08967ED3B47DBC64287E2BFB)
Complete name               : [Winter] Nekomonogatari (Shiro) - Tsubasa Tiger 1 [BDrip 1280x720 x264 Vorbis].mkv
Format                      : Matroska
Format version              : Version 2
File size                   : 582 MiB
Duration                    : 24mn 50s
Overall bit rate mode       : Variable
Overall bit rate            : 3 277 Kbps
Encoded date                : UTC 2013-10-21 15:53:06
Writing application         : mkvmerge v2.9.8 ('C'est le bon') built on Aug 13 2009 12:49:06
Writing library             : libebml v0.7.7 + libmatroska v0.8.1
Video
ID                          : 1
Format                      : AVC
Format/Info                 : Advanced Video Codec
Format profile              : High [email protected]
Format settings, CABAC      : Yes
Format settings, ReFrames   : 9 frames
Codec ID                    : V_MPEG4/ISO/AVC
Duration                    : 24mn 50s
Bit rate                    : 2 956 Kbps
Width                       : 1 280 pixels
Height                      : 720 pixels
Display aspect ratio        : 16:9
Frame rate mode             : Constant
Frame rate                  : 23.976 fps
Color space                 : YUV
Chroma subsampling          : 4:2:0
Bit depth                   : 10 bits
Scan type                   : Progressive
Bits/(Pixel*Frame)          : 0.134
Stream size                 : 525 MiB (90%)
Writing library             : x264 core 132 r2309 3b1f1f7
Encoding settings           : cabac=1 / ref=9 / deblock=1:-2:-2 / analyse=0x3:0x133 / me=umh / subme=9 / psy=1 / psy_rd=0.90:0.00 / mixed_ref=1 / me_range=24 / chroma_me=1 / trellis=2 / 8x8dct=1 / cqm=0 / deadzone=21,11 / fast_pskip=1 / chroma_qp_offset=-2 / threads=6 / lookahead_threads=1 / sliced_threads=0 / nr=0 / decimate=0 / interlaced=0 / bluray_compat=0 / constrained_intra=0 / bframes=8 / b_pyramid=2 / b_adapt=2 / b_bias=0 / direct=1 / weightb=1 / open_gop=0 / weightp=2 / keyint=250 / keyint_min=23 / scenecut=40 / intra_refresh=0 / rc=crf / mbtree=0 / crf=15.5 / qcomp=0.70 / qpmin=9 / qpmax=40 / qpstep=4 / ip_ratio=1.40 / pb_ratio=1.30 / aq=1:0.90 / zones=24183,24512,b=1.3
Default                     : No
Forced                      : No
Audio
ID                          : 2
Format                      : Vorbis
Format settings, Floor      : 1
Codec ID                    : A_VORBIS
Duration                    : 24mn 50s
Bit rate mode               : Variable
Bit rate                    : 256 Kbps
Channel(s)                  : 2 channels
Sampling rate               : 48.0 KHz
Compression mode            : Lossy
Stream size                 : 45.5 MiB (8%)
Writing library             : libVorbis (Schaufenugget) (20101101 (Schaufenugget))
Language                    : Japanese
Default                     : Yes
Forced                      : No

Из чего состоят серии:


  • Tsubasa Tiger Arc
    Adapted from Nekomonogatari: Shiro
    Episodes 1-5
    Episode 6: Summary
  • Mayoi Jiangshi Arc
    Adapted from Kabukimonogatari
    Episodes 7-10
    Episode 11: Summary

  • Nadeko Medusa Arc
    Adapted from Otorimonogatari
    Episodes 12-15
    Episode 16: Summary

  • Shinobu Time Arc
    Adapted from Onimonogatari
    Episodes 17-20

  • Hitagi End Arc
    Adapted from Koimonogatari
    Episodes 21-26

Скриншоты:

-За предоставленый материал 10-17 серий спасибо bl4ckSun-


Последний раз редактировалось: Азиз87 (2015-06-17 22:02), всего редактировалось 12 раз(а)

Создавать темы 26-Янв-2014 22:11

[Профиль]  [ЛС] 

youmymember

Стаж: 5 лет 9 месяцев

Сообщений: 47

Переименуйте следующие серии:
  • 01 -05 в [Winter] Nekomonogatari (Shiro) - Tsubasa Tiger 1 [BDrip 1280x720 x264 Vorbis] согласно сериям;
  • 06-09 в [Winter] Kabukimonogatari Mayoi Jiang Shi 1 [BDrip 1280x720 x264 Vorbis] согласно сериям.
-кто озвучивал?)
ваще непонятка
переводчик: To aru Evafan, редакторы: AleX_MytH, Libra, Xellos Slayer, тайм-код/оформление: DJATOM, караоке: Азиз87

Создавать темы 26-Янв-2014 22:12

[Профиль]  [ЛС] 

Азиз87 ®

Стаж: 4 года 11 месяцев

Сообщений: 752

Симпатии: 143

Вопросы на подобии- Когда прода? Не вижу какие озвучки? Как подключать звук не ко мне читаем пункт Информация о релизе: и пишем СЮДА .

Создавать темы 26-Янв-2014 22:22

[Профиль]  [ЛС] 

Топик был перенесен из форума Аниме онгоинги в форум BD, BDRip

Rambotnik

Создавать темы 26-Янв-2014 23:14

 

1999_shadow

Стаж: 4 года 4 месяца

Сообщений: 34

Ох спасибо) вот только озвучка анидаба лишь до 4 серии, фиг его знает почему, но они решили забить грубо говоря.

Создавать темы 27-Янв-2014 13:17

[Профиль]  [ЛС] 

Rambotnik

Стаж: 6 лет 5 месяцев

Сообщений: 1274

Симпатии: 81

Бред. Никто не забивал. Все ждут сабы от кого-то конкретного, но этот кто-то жутко слоупочит.

Создавать темы 27-Янв-2014 18:50

[Профиль]  [ЛС] 

SNIL

Стаж: 5 лет 9 месяцев

Сообщений: 2624

Симпатии: 341

от Коми давно есть сабы на все серии (и в полне приличные)!
P.S гореть в аду за это войсерам!

Создавать темы 27-Янв-2014 20:04

[Профиль]  [ЛС] 

Rambotnik

Стаж: 6 лет 5 месяцев

Сообщений: 1274

Симпатии: 81

В этом сезоне коми не в почёте)

Создавать темы 27-Янв-2014 20:06

[Профиль]  [ЛС] 

Азиз87 ®

Стаж: 4 года 11 месяцев

Сообщений: 752

Симпатии: 143

Добавлены серии История кошки: белая глава + История упадка (серии 4-9).-Не видите присутствие звука к этим сериям все претензии к Аглену.

Создавать темы 17-Апр-2014 16:45

[Профиль]  [ЛС] 

rikimaruxxx

Стаж: 5 лет 3 месяца

Сообщений: 254

Симпатии: 42

спасибо конечно за релиз но залейте до конца хотя бы равку с субтитрами

Создавать темы 17-Апр-2014 17:27

[Профиль]  [ЛС] 

MeiDoCorpse

Стаж: 4 года 5 месяцев

Сообщений: 222

Симпатии: 14

RIKIMARUXXX, Источник.-Даты выходов BD:
vol 1. 23.10.2013
vol 2. 27.11.2013
vol 3. 25.12.2013
vol 4. 22.01.2014
vol 5. 26.02.2014
vol 6. 26.03.2014
vol 7. 23.04.2014
vol 8. 28.05.2014
vol 9. 25.06.2014
vol 10. 23.07.2014

Создавать темы 17-Апр-2014 19:54

[Профиль]  [ЛС] 

rikimaruxxx

Стаж: 5 лет 3 месяца

Сообщений: 254

Симпатии: 42

MeiDoCorpse, спасибо за инфо. а остальные бд-сериалы тоже по сериям выходят?

Создавать темы 17-Апр-2014 21:27

[Профиль]  [ЛС] 

SNIL

Стаж: 5 лет 9 месяцев

Сообщений: 2624

Симпатии: 341

RIKIMARUXXX, тебе именно БД нужно? у меня есть в ХД с сабами!

Создавать темы 17-Апр-2014 22:43

[Профиль]  [ЛС] 

rikimaruxxx

Стаж: 5 лет 3 месяца

Сообщений: 254

Симпатии: 42

SNIL, эйчди блюрей какая разница? поделитесь!

Создавать темы 17-Апр-2014 22:55

[Профиль]  [ЛС] 

SNIL

Стаж: 5 лет 9 месяцев

Сообщений: 2624

Симпатии: 341

RIKIMARUXXX, ок! завтра залью!

Создавать темы 17-Апр-2014 23:04

[Профиль]  [ЛС] 
Показать сообщения:    
Ответить на тему

Текущее время: 22-Окт 18:47

Часовой пояс: UTC + 5



Вы не можете начинать темы
Вы не можете отвечать на сообщения
Вы не можете редактировать свои сообщения
Вы не можете удалять свои сообщения
Вы не можете голосовать в опросах
Вы не можете прикреплять файлы к сообщениям
Вы не можете скачивать файлы