Va-банк / Runner Runner (Брэд Фурман / Brad Furman) [2013 г., триллер, драма, криминал, BDRip] лицензия

Ответить на тему
 

MeeZanTrop ®

Стаж: 5 лет 8 месяцев

Сообщений: 87

Симпатии: 8

Va-банк / Runner Runner-«Игра стоит свеч»- Год выпуска: 2013
Страна: США
Жанр: триллер, драма, криминал
Продолжительность: 01:31:39
Перевод: Профессиональный (полное дублирование) лицензия-Режиссер: Брэд Фурман / Brad Furman
В ролях: Джастин Тимберлэйк, Бен Аффлек, Джемма Артертон, Энтони Маки, Майкл Эспер, Оливер Купер, Кристиан Джордж, Юл Васкез, Джон Хёрд, Джеймс Молина-Описание: Чтобы оплачивать учёбу в колледже, Ричи погружается в мир азартных игр онлайн. Когда удача изменяет ему, он отправляется на Коста-Рику, чтобы помериться силами с настоящим асом игрового бизнеса. Тот видит в Ричи родственную душу и вводит его в свою игру. Но когда степень опасности возрастает, а ставки достигают невероятных высот, Ричи вдруг отчётливо понимает, что его новый босс вот-вот совершит непоправимое, и пытается поменяться с ним ролями-Качество: BDRip
Формат: AVI
Видео кодек: XviD
Аудио кодек: AC3
Видео: 720x304 (2.35:1), 23.976 fps, XviD 65 ~1875 kbps avg, 0.357 bit/pixel
Аудио: 48 kHz, AC3 Dolby Digital, 3/2 (L,C,R,l,r) + LFE ch, 384.00 kbps
Cубтитры: русские (форсированные) (*.srt, отдельным файлом) на испанскую речь-рейтинг фильма:
 

MediaInfo

E:\Va-bank.2013.D.BDRip.1.45GB\Va-bank.2013.D.BDRip.1.45GB.avi
General
Complete name : E:\Va-bank.2013.D.BDRip.1.45GB\Va-bank.2013.D.BDRip.1.45GB.avi
Format : AVI
Format/Info : Audio Video Interleave
File size : 1.45 GiB
Duration : 1h 31mn
Overall bit rate : 2 268 Kbps
Writing application : VirtualDubModRus 1.5.10.2 (build 2542/release)
Writing library : VirtualDubMod build 2542/release
Video #0
ID : 0
Format : MPEG-4 Visual
Format profile : Advanced [email protected]
Format settings, BVOP : Yes
Format settings, QPel : No
Format settings, GMC : No warppoints
Format settings, Matrix : Custom
Codec ID : XVID
Codec ID/Hint : XviD
Duration : 1h 31mn
Bit rate : 1 875 Kbps
Width : 720 pixels
Height : 304 pixels
Display aspect ratio : 2.35:1
Frame rate : 23.976 fps
Color space : YUV
Chroma subsampling : 4:2:0
Bit depth : 8 bits
Scan type : Progressive
Compression mode : Lossy
Bits/(Pixel*Frame) : 0.357
Stream size : 1.20 GiB (83%)
Writing library : XviD 65
Audio #1
ID : 1
Format : AC-3
Format/Info : Audio Coding 3
Mode extension : CM (complete main)
Codec ID : 2000
Duration : 1h 31mn
Bit rate mode : Constant
Bit rate : 384 Kbps
Channel(s) : 6 channels
Channel positions : Front: L C R, Side: L R, LFE
Sampling rate : 48.0 KHz
Bit depth : 16 bits
Compression mode : Lossy
Stream size : 251 MiB (17%)
Alignment : Split accross interleaves
Interleave, duration : 42 ms (1.00 video frame)
Interleave, preload duration : 500 ms

Скриншоты





Создавать темы 27-Янв-2014 00:54

[Профиль]  [ЛС] 

Lion31

Стаж: 6 лет 8 месяцев

Сообщений: 83

Симпатии: 2

MeeZanTrop, спасибо а План побега тоже сможешь поставит с вес 1.45 гб

Создавать темы 27-Янв-2014 01:10

[Профиль]  [ЛС] 

MeeZanTrop ®

Стаж: 5 лет 8 месяцев

Сообщений: 87

Симпатии: 8

Lion31, Не, "План побега" идёт почти два часа, так что в 1.45 гб качество видео будет не очень хорошее, я обычно так ориентируюсь - если фильм идет примерно 2 часа то и весить должен около двух гигов, а если продолжительность 1.5 часа то в смотрибельном качестве можно и в 1.5 гига качнуть, формула примерно такая: 1 час фильма = 1 гигабайт веса файла. Так что если бы я его выкладывал бы, то в 2 гигах, так что сорри bk

Создавать темы 27-Янв-2014 01:51

[Профиль]  [ЛС] 

axeman

Стаж: 4 года 11 месяцев

Сообщений: 380

Симпатии: 50

Lion31формула примерно такая: 1 час фильма = 1 гигабайт веса файла. Так что если бы я его выкладывал бы, то в 2 гигах, так что сорри bk
Откуда такая информация, объем видео по моему мнению зависит от количество кадров и пикселей и конечно звука........

Создавать темы 27-Янв-2014 20:05

[Профиль]  [ЛС] 

axeman

Стаж: 4 года 11 месяцев

Сообщений: 380

Симпатии: 50

Lion31формула примерно такая: 1 час фильма = 1 гигабайт веса файла. Так что если бы я его выкладывал бы, то в 2 гигах, так что сорри bk
Откуда такая информация, объем видео по моему мнению зависит от количество кадров и пикселей, размера и конечно звука........

Создавать темы 27-Янв-2014 20:11

[Профиль]  [ЛС] 

totsamiy

Стаж: 5 лет 4 месяца

Сообщений: 145

Симпатии: 22

Lion31формула примерно такая: 1 час фильма = 1 гигабайт веса файла. Так что если бы я его выкладывал бы, то в 2 гигах, так что сорри bk
Откуда такая информация, объем видео по моему мнению зависит от количество кадров и пикселей и конечно звука........
Он же пишет что это лично его ориентация!

Создавать темы 28-Янв-2014 00:02

[Профиль]  [ЛС] 

MeeZanTrop ®

Стаж: 5 лет 8 месяцев

Сообщений: 87

Симпатии: 8

Lion31формула примерно такая: 1 час фильма = 1 гигабайт веса файла. Так что если бы я его выкладывал бы, то в 2 гигах, так что сорри bk
Откуда такая информация, объем видео по моему мнению зависит от количество кадров и пикселей и конечно звука........
Всё правельно вы говорите напрямую зависит, и чем больше Kb/s тем лучше будет картинка, и следовательно тем больше будет весить сам файл. Эта "формула" такой мой личный критерий по которому лично я отбираю что качать а что нет, например если учесть что это BDRip или HDRip и в исключителных случаях DVDrip с лицензий, то следуя моей логике в этих рипах будет где-то +\- 1600-1800Kb/s, и 448kb/s 5-6 канальный звук, что для меня вполне приемлемо. Скажем я не буду качать фильм весом 600-700 мегабайт именно по той причине что там качество видео ниже смотрибельного, в этих рипах битрейт видео будет где-то +\- 700-900Kb/s и звук 160-192Kb/s 2-х канальный. Так вот если фильм скажем будет идти 3 часа а весить 1,5 гб то соответственно у него будет низкий битрейт, что отразится на качестве картинки. Так что одно с другим связано как не крути.

Создавать темы 28-Янв-2014 01:45

[Профиль]  [ЛС] 

Jnec

Стаж: 5 лет

Сообщений: 165

Большое спасибо!!!

Создавать темы 29-Янв-2014 06:03

[Профиль]  [ЛС] 
Показать сообщения:    
Ответить на тему

Текущее время: 23-Окт 18:37

Часовой пояс: UTC + 5



Вы не можете начинать темы
Вы не можете отвечать на сообщения
Вы не можете редактировать свои сообщения
Вы не можете удалять свои сообщения
Вы не можете голосовать в опросах
Вы не можете прикреплять файлы к сообщениям
Вы не можете скачивать файлы