Анализируй Это + Анализируй То / Analyze This + Analyze That / (Харольд Рэмис) [1999-2002гг., комедия, криминал, BDRip]

Ответить на тему
 

Gen-X ®

Стаж: 4 года 11 месяцев

Сообщений: 125

Симпатии: 56

Анализируй Это / Analyze This
Год выпуска: 1999
Страна: США, Австралия
Жанр: комедия, криминал
Продолжительность: 1:43:34
Перевод: Профессиональный (полное дублирование)-Режиссер: Харольд Рэмис
Сценарий: Кеннет Лонерган, Питер Толан, Харольд Рэмис
Композитор: Говард Шор-В ролях: Роберт Де Ниро (Владимир Еремин), Билли Кристал (Алексей Иващенко), Лиза Кудроу (Ольга Голованова), Чазз Пальминтери, Джо Витерелли (Виктор Петров), Молли Шеннон (Ирина Савина), Кайл Сабихи (Дмитрий Филимонов), Макс Казелла (Олег Вирозуб), Билл Мэйси (Вячеслав Баранов), Ребекка Шалл (Светлана Старикова)-Описание: У Пола Вити, влиятельного нью-йоркского мафиози, пошаливают нервишки. До некоторых пор это был железный человек, не дрогнувший даже когда его лучший друг попал под сенокосилку, а теперь - позор! - он не может смотреть без слез, как по телевизору крокодил кушает маленького щеночка. Или, совершая очередное убийство, вдруг начнет любоваться закатом. А то и старушку через дорогу переведет. В общем, не порядок! Не к лицу крестному отцу целого клана размазывать слюни и уподобляться сентиментальной барышне.
Понимая, что для главы мафиозного клана подобное поведение недопустимо, Пол отправляется к психоаналитику по имени Бен Собел. Загвоздка в том, что прежде клиентами Бена были лишь бабули, удрученные поведением любимых кошечек и собачек... В общем, представьте себе эмоциональную беседу гангстера, который без мата двух слов связать не может, и психотерапевта, испытывающего естественную нелюбовь к людям, грозящим продырявить ему башку при каждом удобном случае.
И тем не менее постепенно Вити преодолевает предубеждение против врачевателей душ и начинает рассказывать Бену о своей жизни, о комплексах, о навязчивых снах. И - странное дело - поведав Собелу о том, что ему приснилось черное молоко или голубой ацидофилин, Пол обнаруживает, что ему становится гораздо легче, и он без лишних угрызений совести может замочить на месте кого угодно.
Естественно, Бена совсем не устраивает подобное положение дел, но выбора у него нет. Вот и пытается он на полном серьезе отыскать в детстве Пола эдипов комплекс, реакцию Вассермана, синдром страха перед карточкой социального страхования или полуночный энурез...- 
MPAA рейтинг: R (лицам до 17 лет обязательно присутствие взрослого)-Качество: BDRip
Формат: MKV
Видео кодек: H.264
Аудио кодек: AC3, DTS
Видео: 1280x720 pixels, 16:9, 23.976 fps, 4534 Kbps
Аудио №1: Русский, AC-3, 384 Kbps, 48.0 KHz, 6 channels
Аудио №2: Английский, DTS, 1509 Kbps, 48.0 KHz, 6 channels
Субтитры: Русские, Английские

Доп. информация

Бюджет: $80 000 000
Кассовые сборы:
В США: $106 885 658
В других странах: $70 000 000
Общие сборы: $176 885 658
Премьера (мир): 5 марта 1999
Релиз на DVD: 15 июня 2009, «Юниверсал Пикчерс Рус»
Релиз на Blu-Ray: 8 июня 2010, «Юниверсал Пикчерс Рус»

Цитаты из фильма

— Не дари мне больше ничего [...] Это вопрос этики.
— Вопрос этики? Если подарок от души, кому от этого хуже?

— Меня бросили в аквариум, Пол. К акуле.
— Это чтоб ты понял...
— Что вы страшный парень? Поверьте, я знаю.
— Что, не в настроении?
— Со мной бывает, когда иду на завтрак к акуле!

— Как думаешь, киты писают в воду?
— Нет-нет, они ходят в туалет, в Макдональдсе!

— Вы летели за 2500 км, вытащили меня из постели, просто из-за слабой эрекции?!
— Это для меня важно!
— Существуют таблетки...
— Нет, нет, не пойдет! Это ловушка: начинаешь с колес, потом садишься на иглу... Либо честный законный стояк, либо никакого!!!

— Он хороший специалист?
— О, да! У него есть визитка.

— Возможно, у тебя Эдипов комплекс.
— Говори по-человечески.
— Эдип – греческий царь, который убил своего отца и женился на собственной матери.
— Чертовы греки.

— Вам, наверное, не часто приходится слышать слово «нет»?
— Почему же? Часто. Только обычно это звучит так: «Нет, нет, пожалуйста, не надо!»

— А почему вы были с подружкой, а не с женой?
— Ты чего? Она потом этими губами моих детей целует!

— Не могу поверить, что у нас со Стивом всё в прошлом. Может, он одумается?
— Стив добился судебного запрета вам приближаться к нему ближе, чем на 10 метров. Это скверный знак.

— Времена меняются. И нам тоже надо меняться вместе со временем.
— Может нам еще и страницу открыть в этом долбанном интернете?

— Достань словарь и посмотри, что такое «катарсис». Если это то, чем он хочет нас замочить, я хочу знать, что это такое.

Медиа инфо

Video
ID : 1
Format : AVC
Format/Info : Advanced Video Codec
Format profile : [email protected]
Format settings, CABAC : Yes
Format settings, ReFrames : 6 frames
Codec ID : V_MPEG4/ISO/AVC
Duration : 1h 43mn
Bit rate : 4 534 Kbps
Width : 1 280 pixels
Height : 720 pixels
Display aspect ratio : 16:9
Frame rate mode : Constant
Frame rate : 23.976 fps
Color space : YUV
Chroma subsampling : 4:2:0
Bit depth : 8 bits
Scan type : Progressive
Bits/(Pixel*Frame) : 0.205
Stream size : 3.19 GiB (69%)
Writing library : x264 core 84 r1416 fcf70c2
Encoding settings : cabac=1 / ref=6 / deblock=1:0:0 / analyse=0x3:0x113 / me=umh / subme=9 / psy=1 / psy_rd=1.1:0.0 / mixed_ref=1 / me_range=16 / chroma_me=1 / trellis=1 / 8x8dct=1 / cqm=0 / deadzone=21,11 / fast_pskip=0 / chroma_qp_offset=-2 / threads=6 / sliced_threads=0 / nr=0 / decimate=1 / mbaff=0 / constrained_intra=0 / bframes=3 / b_pyramid=0 / b_adapt=2 / b_bias=0 / direct=3 / wpredb=1 / wpredp=2 / keyint=250 / keyint_min=25 / scenecut=40 / intra_refresh=0 / rc_lookahead=30 / rc=2pass / mbtree=1 / bitrate=4534 / ratetol=1.0 / qcomp=0.60 / qpmin=10 / qpmax=51 / qpstep=4 / cplxblur=20.0 / qblur=0.5 / ip_ratio=1.40 / aq=1:1.10
Language : English
Default : Yes
Forced : No
Audio #1
ID : 2
Format : AC-3
Format/Info : Audio Coding 3
Mode extension : CM (complete main)
Format settings, Endianness : Big
Codec ID : A_AC3
Duration : 1h 43mn
Bit rate mode : Constant
Bit rate : 384 Kbps
Channel(s) : 6 channels
Channel positions : Front: L C R, Side: L R, LFE
Sampling rate : 48.0 KHz
Bit depth : 16 bits
Compression mode : Lossy
Stream size : 284 MiB (6%)
Title : AC3 5.1 384 kbps
Language : Russian
Default : Yes
Forced : No
Audio #2
ID : 3
Format : DTS
Format/Info : Digital Theater Systems
Mode : 16
Format settings, Endianness : Big
Codec ID : A_DTS
Duration : 1h 43mn
Bit rate mode : Constant
Bit rate : 1 509 Kbps
Channel(s) : 6 channels
Channel positions : Front: L C R, Side: L R, LFE
Sampling rate : 48.0 KHz
Bit depth : 16 bits
Compression mode : Lossy
Stream size : 1.09 GiB (23%)
Title : DTS 5.1 1536 kbps
Language : English
Default : No
Forced : No
Text #1
ID : 4
Format : UTF-8
Codec ID : S_TEXT/UTF8
Codec ID/Info : UTF-8 Plain Text
Language : Russian
Default : No
Forced : No
Text #2
ID : 5
Format : UTF-8
Codec ID : S_TEXT/UTF8
Codec ID/Info : UTF-8 Plain Text
Language : English
Default : No
Forced : No

---
Анализируй То / Analyze That
Год выпуска: 2002
Страна: США, Австралия
Жанр: комедия, криминал
Продолжительность: 1:35:47
Перевод: Профессиональный (полное дублирование)-Режиссер: Харольд Рэмис
Сценарий: Кеннет Лонерган, Питер Толан, Питер Стайнфелд
Композитор: Дэвид Холмс-В ролях: Роберт Де Ниро (Владимир Еремин), Билли Кристал (Алексей Иващенко), Лиза Кудроу (Ольга Голованова), Джо Витерелли (Виктор Петров), Кэти Мориарти (Наталья Гурзо), Кайл Сабихи (Александр Комлев), Джои Диаз (Александр Груздев), Энтони ЛаПалья (Владимир Антоник), Джеймс Бибери (Вячеслав Баранов), Калли Торн-Описание: Сиквел неожиданно успешной комедии 1999 года с теми же актерами и персонажами, с тем же режиссером. В начале фильма Пол Витти, крестный отец мафии, сидит в тюрьме. Он не в самом лучшем психическом состоянии, ему нужна помощь психоаналитика доктора Бена Собеля.
Однако ирония в том, что психоаналитик теперь нужен и самому Собелю — после смерти отца на него свалился семейный бизнес, и он пребывает в жутком стрессе. Тем временем, Витти выходит на свободу и пытается приспособиться к жизни вне мафии — поступает на телевидение, где консультирует передачи… о мафии.- 
MPAA рейтинг: R (лицам до 17 лет обязательно присутствие взрослого)-Качество: BDRip
Формат: MKV
Видео кодек: H.264
Аудио кодек: AC3, DTS
Видео: 1280x720 pixels, 16:9, 23.976 fps, 5024 Kbps
Аудио №1: Русский, AC-3, 384 Kbps, 48.0 KHz, 6 channels
Аудио №2: Русский, DTS, 1509 Kbps, 48.0 KHz, 6 channels
Субтитры: Русские, Английские

Доп. информация

Бюджет: $60 000 000
Кассовые сборы:
В США: $32 130 627
В других странах: $22 872 508
Общие сборы: $55 003 135
Премьера (мир): 6 декабря 2002
премьера (РФ): 27 марта 2003, «Каро-Премьер»
Релиз на DVD: 15 июня 2009, «Юниверсал Пикчерс Рус»
Релиз на Blu-Ray: 8 июня 2010, «Юниверсал Пикчерс Рус»

Цитата из фильма

— Двое свидетелей передумали давать показания, а третий покончил с собой.
— Как?
— Три раза ударил себя в спину ножом и бросился в реку.

Медиа инфо

Video
ID : 1
Format : AVC
Format/Info : Advanced Video Codec
Format profile : [email protected]
Format settings, CABAC : Yes
Format settings, ReFrames : 6 frames
Codec ID : V_MPEG4/ISO/AVC
Duration : 1h 35mn
Bit rate : 5 024 Kbps
Width : 1 280 pixels
Height : 720 pixels
Display aspect ratio : 16:9
Frame rate mode : Constant
Frame rate : 23.976 fps
Color space : YUV
Chroma subsampling : 4:2:0
Bit depth : 8 bits
Scan type : Progressive
Bits/(Pixel*Frame) : 0.227
Stream size : 3.27 GiB (71%)
Writing library : x264 core 84 r1416 fcf70c2
Encoding settings : cabac=1 / ref=6 / deblock=1:0:0 / analyse=0x3:0x113 / me=umh / subme=9 / psy=1 / psy_rd=1.1:0.0 / mixed_ref=1 / me_range=16 / chroma_me=1 / trellis=1 / 8x8dct=1 / cqm=0 / deadzone=21,11 / fast_pskip=0 / chroma_qp_offset=-3 / threads=6 / sliced_threads=0 / nr=0 / decimate=1 / mbaff=0 / constrained_intra=0 / bframes=3 / b_pyramid=0 / b_adapt=2 / b_bias=0 / direct=3 / wpredb=1 / wpredp=2 / keyint=250 / keyint_min=25 / scenecut=40 / intra_refresh=0 / rc_lookahead=30 / rc=2pass / mbtree=1 / bitrate=5024 / ratetol=1.0 / qcomp=0.60 / qpmin=10 / qpmax=51 / qpstep=4 / cplxblur=20.0 / qblur=0.5 / ip_ratio=1.40 / aq=1:1.10
Language : English
Default : Yes
Forced : No
Audio #1
ID : 2
Format : AC-3
Format/Info : Audio Coding 3
Mode extension : CM (complete main)
Format settings, Endianness : Big
Codec ID : A_AC3
Duration : 1h 35mn
Bit rate mode : Constant
Bit rate : 384 Kbps
Channel(s) : 6 channels
Channel positions : Front: L C R, Side: L R, LFE
Sampling rate : 48.0 KHz
Bit depth : 16 bits
Compression mode : Lossy
Stream size : 263 MiB (6%)
Title : AC3 5.1 384 kbps
Language : Russian
Default : Yes
Forced : No
Audio #2
ID : 3
Format : DTS
Format/Info : Digital Theater Systems
Mode : 16
Format settings, Endianness : Big
Codec ID : A_DTS
Duration : 1h 35mn
Bit rate mode : Constant
Bit rate : 1 509 Kbps
Channel(s) : 6 channels
Channel positions : Front: L C R, Side: L R, LFE
Sampling rate : 48.0 KHz
Bit depth : 16 bits
Compression mode : Lossy
Stream size : 1.01 GiB (22%)
Title : DTS 5.1 1536 kbps
Language : English
Default : No
Forced : No
Text #1
ID : 4
Format : UTF-8
Codec ID : S_TEXT/UTF8
Codec ID/Info : UTF-8 Plain Text
Language : Russian
Default : No
Forced : No
Text #2
ID : 5
Format : UTF-8
Codec ID : S_TEXT/UTF8
Codec ID/Info : UTF-8 Plain Text
Language : English
Default : No
Forced : No
-Перекачайте торрент файл, загрузил в HD качестве-


Последний раз редактировалось: Gen-X (2015-05-11 13:45), всего редактировалось 2 раз(а)

Создавать темы 27-Янв-2014 15:01

[Профиль]  [ЛС] 

Каротажник

Стаж: 4 года 2 месяца

Сообщений: 195

Симпатии: 211

спасиба за релиз

Создавать темы 27-Янв-2014 20:11

[Профиль]  [ЛС] 

Gen-X ®

Стаж: 4 года 11 месяцев

Сообщений: 125

Симпатии: 56

спасиба за релиз
на здоровье

Создавать темы 27-Янв-2014 21:35

[Профиль]  [ЛС] 

Каротажник

Стаж: 4 года 2 месяца

Сообщений: 195

Симпатии: 211

Gen-X, раздавай plizzzzz так хочется посмотреть

Создавать темы 28-Янв-2014 02:38

[Профиль]  [ЛС] 

Gen-X ®

Стаж: 4 года 11 месяцев

Сообщений: 125

Симпатии: 56

Gen-X, раздавай plizzzzz так хочется посмотреть
раздаю по максимуму

Создавать темы 28-Янв-2014 09:40

[Профиль]  [ЛС] 

mr.agape

Стаж: 4 года 2 месяца

Сообщений: 1

Спасибо +

Создавать темы 29-Янв-2014 16:21

[Профиль]  [ЛС] 

thomasz

Стаж: 4 года 5 месяцев

Сообщений: 40

Симпатии: 4

раздачинг плиз

Создавать темы 18-Фев-2014 19:54

[Профиль]  [ЛС] 

Gen-X ®

Стаж: 4 года 11 месяцев

Сообщений: 125

Симпатии: 56

на днях наверное заменю фильм на HD качество

Создавать темы 08-Май-2015 22:17

[Профиль]  [ЛС] 

Gen-X ®

Стаж: 4 года 11 месяцев

Сообщений: 125

Симпатии: 56

935186на днях наверное заменю фильм на HD качество
Заменил

Создавать темы 11-Май-2015 13:51

[Профиль]  [ЛС] 

Топик был перенесен из форума Фильмы до 2010 в форум HD-video
LUKA

Создавать темы 11-Май-2015 14:26

 

Топик был перенесен из форума HD-video в форум HD-AVC
LUKA

Создавать темы 11-Май-2015 14:29

 

Топик был перенесен из форума HD-AVC в форум Фильмы до 2010
LUKA

Создавать темы 11-Май-2015 14:47

 

Топик был перенесен из форума Фильмы до 2010 в форум HD-AVC
Mixer City

Создавать темы 11-Май-2015 14:59

 

Tiar17

Стаж: 6 лет 2 месяца

Сообщений: 83

Симпатии: 5

скачаль

Создавать темы 27-Май-2015 13:42

[Профиль]  [ЛС] 
Показать сообщения:    
Ответить на тему

Текущее время: 14-Дек 23:47

Часовой пояс: UTC + 5



Вы не можете начинать темы
Вы не можете отвечать на сообщения
Вы не можете редактировать свои сообщения
Вы не можете удалять свои сообщения
Вы не можете голосовать в опросах
Вы не можете прикреплять файлы к сообщениям
Вы не можете скачивать файлы