Очень плохие парни / Big Bad Wolves (Аарон Кешалес / Aharon Keshales, Навот Папушадо / Navot Papushado) [2013, Израиль, Триллер, криминал, WEB-DLRip] VO (Хихикающий доктор) + Sub Eng

Ответить на тему
 

Suxrob89 ®

Стаж: 7 лет 2 месяца

Сообщений: 933

Симпатии: 564

-Очень плохие парни / Big Bad Wolves- Страна: Израиль
Жанр: Триллер, криминал
Год выпуска: 2013
Продолжительность: 01:49:43
Перевод: Одноголосый закадровый [Хихикающий доктор]
Cубтитры: английские
Оригинальная аудиодорожка: нет-Режиссер: Аарон Кешалес / Aharon Keshales, Навот Папушадо / Navot Papushado-В ролях: Лиор Ашкенази, Ротем Кейнан, Цахи Град, Довале Гликман, Менаш Ной, Двир Бенедек, Каис Насеф, Нати Клюгер, Ами Вайнберг, Гай Адлер-Описание: Многие начинают говорить, после второго сломанного пальца. Это правило использует полицейский, чтоб добыть признания у подозреваемого в жутких убийствах детей, преподователя начальных классов. К нему присоединяется обезумевший от горя отец, одной из погибших девочек. Но когда пытки заходят слишком далеко, полицейский начинает сомневаться, что преподаватель является убийцей,но отец погибшей девочки ничего не хочет слышать. А может это отец является маньяком, успел подумать полицейский, прежде чем оказаться связанным рядом с преподавателем.- -Качество видео: WEB-DLRip
Формат видео: AVI
Видео: XviD, 720x304, 23.976 fps, 1581 Kbps
Аудио: MP3, 44.1 KHz, 2 ch, 192 Kbps
Формат субтитров: hardsub (неотключаемые)
Доп. информация о субтитрах: (вшитые)

MediaInfo

General
Complete name : E:\bd2\DVDRips\Ocen.plohie.parny.2013.L1.WEB-DLRip.1400MB.avi
Format : AVI
Format/Info : Audio Video Interleave
File size : 1.37 GiB
Duration : 1h 49mn
Overall bit rate : 1 782 Kbps
Writing application : VirtualDubMod 1.5.10.2 (build 2540/release)
Writing library : VirtualDubMod build 2540/release
Video
ID : 0
Format : MPEG-4 Visual
Format profile : Advanced [email protected]
Format settings, BVOP : 2
Format settings, QPel : No
Format settings, GMC : No warppoints
Format settings, Matrix : Default (H.263)
Codec ID : XVID
Codec ID/Hint : XviD
Duration : 1h 49mn
Bit rate : 1 581 Kbps
Width : 720 pixels
Height : 304 pixels
Display aspect ratio : 2.35:1
Frame rate : 23.976 fps
Color space : YUV
Chroma subsampling : 4:2:0
Bit depth : 8 bits
Scan type : Progressive
Compression mode : Lossy
Bits/(Pixel*Frame) : 0.301
Stream size : 1.21 GiB (89%)
Writing library : XviD 1.2.1 (UTC 2008-12-04)
Audio
ID : 1
Format : MPEG Audio
Format version : Version 1
Format profile : Layer 3
Codec ID : 55
Codec ID/Hint : MP3
Duration : 1h 49mn
Bit rate mode : Constant
Bit rate : 192 Kbps
Channel(s) : 2 channels
Sampling rate : 44.1 KHz
Compression mode : Lossy
Delay relative to video : 118ms
Stream size : 151 MiB (11%)
Alignment : Split accross interleaves
Interleave, duration : 42 ms (1.00 video frame)
Interleave, preload duration : 500 ms

Скриншот c названием фильма

Скриншоты

Создавать темы 28-Янв-2014 07:22

[Профиль]  [ЛС] 

Каротажник

Стаж: 4 года

Сообщений: 195

Симпатии: 211

спасиба за релиз

Создавать темы 28-Янв-2014 07:27

[Профиль]  [ЛС] 

The Khazratov

Стаж: 3 года 8 месяцев

Сообщений: 54

Симпатии: 1

Ждемс лицензию

Создавать темы 28-Янв-2014 10:29

[Профиль]  [ЛС] 

dandyman

Стаж: 6 лет 11 месяцев

Сообщений: 68

Симпатии: 4

сюжет захватывающий.

Создавать темы 28-Янв-2014 16:59

[Профиль]  [ЛС] 

bobsansaba

Стаж: 3 года 10 месяцев

Сообщений: 45

Симпатии: 4

фильм супер, советую всем

Создавать темы 28-Янв-2014 17:52

[Профиль]  [ЛС] 

Roman94

Стаж: 5 лет 1 месяц

Сообщений: 5

Пустая трата 2 часов жизни...

Создавать темы 29-Янв-2014 22:30

[Профиль]  [ЛС] 
Показать сообщения:    
Ответить на тему

Текущее время: 23-Окт 00:25

Часовой пояс: UTC + 5



Вы не можете начинать темы
Вы не можете отвечать на сообщения
Вы не можете редактировать свои сообщения
Вы не можете удалять свои сообщения
Вы не можете голосовать в опросах
Вы не можете прикреплять файлы к сообщениям
Вы не можете скачивать файлы