Вся правда о характере / BBC Horizon - The Truth About Personality (Хелен Никсон / Helen Nikson) [2013 г., Документальный, HDTV]

Ответить на тему
 

V.I.P. ®

Стаж: 3 года 7 месяцев

Сообщений: 6

Симпатии: 2

Вся правда о характере / BBC Horizon - The Truth About Personality
Год выпуска: 2013
Жанр: Документальный
Продолжительность: 00:57:51
Перевод 1: Профессиональный (двухголосый закадровый) - студия "Глагол"
Перевод 2: Одноголосый закадровый - sergey_veres
Субтитры: Русские (fyva2000), Английские
Режиссер: Хелен Никсон / Helen Nikson
В ролях: Майкл Мозли
Описание: Майкл Мозли поставил перед собой амбициозную задачу - изменить свой разум. Он решил изучить последние достижения в области психологии и генетики, чтобы узнать, как формируется структура личности и можно ли ее модифицировать. Майкл – неисправимый пессимист, который постоянно беспокоится о будущем и копается в прошлом, вместо того, чтобы жить в настоящем. Он хочет стать более доброжелательным и счастливым человеком. Испытывая на себе две разные методики, позволяющие изменить этот аспект личности, он добивается весьма впечатляющих результатов.
Качество: HDTV
Формат: MKV
Видео кодек: Другой MPEG4
Аудио кодек: AC3
Видео: AVC, 1280x720 (16:9), 25.000 fps, 2450 Kbps
Аудио 1: Russian AC3, 2 ch, 48KHz, 128 Kbps - студия "Глагол"
Аудио 2: Russian AC3, 2 ch, 48KHz, 128 Kbps - sergey_veres
Аудио 3: English AAC, 2 ch, 128 Kbps, 48KHz
Формат субтитров: softsub (SRT)

MediaInfo

General
Unique ID : 248688911702528795813775003961749006984 (0xBB17BE0010BB94F5B1FBF41E3305EA88)
Complete name : E:\Документальное\BBC Horizon\BBC.Horizon.2013.The.Truth.About.Personality.720p.HDTV (Rutracker.org).mkv
Format : Matroska
Format version : Version 4 / Version 2
File size : 1.16 GiB
Duration : 57mn 51s
Overall bit rate : 2 873 Kbps
Movie name : BBC Horizon - The Truth About Personality (2013)
Encoded date : UTC 2014-01-21 11:20:21
Writing application : mkvmerge v6.7.0 ('Back to the Ground') 64bit built on Jan 8 2014 15:10:52
Writing library : libebml v1.3.0 + libmatroska v1.4.1
Video #1
ID : 1
Format : AVC
Format/Info : Advanced Video Codec
Format profile : [email protected]
Format settings, CABAC : Yes
Format settings, ReFrames : 6 frames
Codec ID : V_MPEG4/ISO/AVC
Duration : 57mn 51s
Width : 1 280 pixels
Height : 720 pixels
Display aspect ratio : 16:9
Frame rate mode : Constant
Frame rate : 25.000 fps
Color space : YUV
Chroma subsampling : 4:2:0
Bit depth : 8 bits
Scan type : Progressive
Writing library : x264 core 133 r2334 a3ac64b
Encoding settings : cabac=1 / ref=6 / deblock=1:0:0 / analyse=0x3:0x113 / me=umh / subme=9 / psy=1 / psy_rd=1.00:0.00 / mixed_ref=1 / me_range=24 / chroma_me=1 / trellis=1 / 8x8dct=1 / cqm=0 / deadzone=21,11 / fast_pskip=0 / chroma_qp_offset=-2 / threads=3 / lookahead_threads=1 / sliced_threads=0 / nr=0 / decimate=1 / interlaced=0 / bluray_compat=0 / constrained_intra=0 / bframes=3 / b_pyramid=2 / b_adapt=1 / b_bias=0 / direct=1 / weightb=1 / open_gop=0 / weightp=2 / keyint=250 / keyint_min=15 / scenecut=40 / intra_refresh=0 / rc_lookahead=40 / rc=crf / mbtree=1 / crf=19.0 / qcomp=0.60 / qpmin=0 / qpmax=69 / qpstep=4 / ip_ratio=1.40 / aq=1:1.00
Language : English
Default : Yes
Forced : No
Audio #2
ID : 2
Format : AC-3
Format/Info : Audio Coding 3
Mode extension : CM (complete main)
Format settings, Endianness : Big
Codec ID : A_AC3
Duration : 57mn 51s
Bit rate mode : Constant
Bit rate : 128 Kbps
Channel count : 2 channels
Channel positions : Front: L R
Sampling rate : 48.0 KHz
Bit depth : 16 bits
Compression mode : Lossy
Stream size : 53.0 MiB (4%)
Title : Glagol
Language : Russian
Default : Yes
Forced : No
Audio #3
ID : 3
Format : AC-3
Format/Info : Audio Coding 3
Mode extension : CM (complete main)
Format settings, Endianness : Big
Codec ID : A_AC3
Duration : 57mn 51s
Bit rate mode : Constant
Bit rate : 128 Kbps
Channel count : 2 channels
Channel positions : Front: L R
Sampling rate : 48.0 KHz
Bit depth : 16 bits
Compression mode : Lossy
Stream size : 53.0 MiB (4%)
Title : sergey_veres
Language : Russian
Default : No
Forced : No
Audio #4
ID : 4
Format : AAC
Format/Info : Advanced Audio Codec
Format profile : LC
Codec ID : A_AAC
Duration : 57mn 51s
Channel count : 2 channels
Channel positions : Front: L R
Sampling rate : 48.0 KHz
Compression mode : Lossy
Delay relative to video : 9ms
Language : English
Default : No
Forced : No
Text #5
ID : 5
Format : UTF-8
Codec ID : S_TEXT/UTF8
Codec ID/Info : UTF-8 Plain Text
Title : fyva2000
Language : Russian
Default : No
Forced : No
Text #6
ID : 6
Format : UTF-8
Codec ID : S_TEXT/UTF8
Codec ID/Info : UTF-8 Plain Text
Language : English
Default : No
Forced : No

Скриншоты








Создавать темы 28-Янв-2014 19:44

[Профиль]  [ЛС] 
Показать сообщения:    
Ответить на тему

Текущее время: 19-Авг 19:52

Часовой пояс: UTC + 5



Вы не можете начинать темы
Вы не можете отвечать на сообщения
Вы не можете редактировать свои сообщения
Вы не можете удалять свои сообщения
Вы не можете голосовать в опросах
Вы не можете прикреплять файлы к сообщениям
Вы не можете скачивать файлы