Призрак и Тьма / The Ghost and the Darkness (Стивен Хопкинс / Stephen Hopkins) [1996 г., триллер, драма, приключения, HDTVRip]

Ответить на тему
 

maxuz ®

Стаж: 6 лет 8 месяцев

Сообщений: 55

Симпатии: 3

Призрак и Тьма / The Ghost and the Darkness-- --Год выпуска: 1996--Страна: США--Жанр: триллер, драма, приключения--Продолжительность: 01:49:54--Перевод: Профессиональный (многоголосый, закадровый)--Режиссер: Стивен Хопкинс / Stephen Hopkins--В ролях: Майкл Дуглас — Чарльз Ремингтон
Вэл Килмер — Полковник Джон Генри Паттерсон
Джон Кани — Самуэль
Бернард Хилл — Доктор Дэвид Хоуторн
Том Уилкинсон — Роберт Бомонт
Брайан Маккарди — Ангус Старлинг
Эмили Мортимер — Хелена Паттерсон
Ом Пури — Абдулла
Генри Селе — Махина--Описание: 1898 год. Ровно 100 лет назад англичане, строившие железную дорогу среди холмов Южной Африки, столкнулись с загадочной и смертельной опасностью. Два льва-людоеда в течение девяти месяцев, пожирая людей, держали в страхе тысячи местных рабочих. Количество жертв продолжало расти каждый день и достигло 130 человек. Ирландский военный инженер и охотник на диких зверей решают покончить с четвероногими людоедами.--Качество: HDTVRip
Формат: MKV
Видео кодек: H.26x
Аудио кодек: AC3
Видео: 1280 x 608; 23,976 fps; 6725 Kbps
Аудио1: Русский, AC3 5.1 384 Kbps 48,0 КГц (MVO)
[bАудио2]
: Русский, AC3 5.1 384 Kbps 48,0 КГц (DVO)
Аудио3: Русский, AC3 2.0 192 Kbps 48,0 КГц (Горчаков)
Аудио4: English, AC3 5.1 448 Kbps 48,0 КГц (Оригинал)
Субтитры: softsub (SRT)--

МИ

General
Complete name : G:\HDFILMS\The.Ghost.and.the.Darkness.1996.720p.HDTVRip.3xRus.Eng.mkv
Format : Matroska
File size : 6.24 GiB
Duration : 1h 49mn
Overall bit rate : 8 132 Kbps
Encoded date : UTC 2011-06-20 13:58:21
Writing application : mkvmerge v2.9.8 ('C'est le bon') built on Aug 13 2009 12:49:06
Writing library : libebml v0.7.7 + libmatroska v0.8.1
Video #1
ID : 1
Format : AVC
Format/Info : Advanced Video Codec
Format profile : [email protected]
Format settings, CABAC : Yes
Format settings, ReFrames : 9 frames
Muxing mode : Container [email protected]
Codec ID : V_MPEG4/ISO/AVC
Duration : 1h 49mn
Bit rate : 6 725 Kbps
Width : 1 280 pixels
Height : 608 pixels
Display aspect ratio : 2.2:1
Frame rate : 23.976 fps
Color space : YUV
Chroma subsampling : 4:2:0
Bit depth : 8 bits
Scan type : Progressive
Bits/(Pixel*Frame) : 0.360
Stream size : 5.04 GiB (81%)
Title : The.Ghost.and.the.Darkness.1996.720p.HDTV.x264-DON
Writing library : x264 core 84 r1400M 20fa784
Encoding settings : cabac=1 / ref=9 / deblock=1:-3:-3 / analyse=0x3:0x113 / me=umh / subme=9 / psy=1 / psy_rd=1.0:0.0 / mixed_ref=1 / me_range=32 / chroma_me=1 / trellis=1 / 8x8dct=1 / cqm=0 / deadzone=21,11 / fast_pskip=0 / chroma_qp_offset=-2 / threads=12 / sliced_threads=0 / nr=0 / decimate=0 / mbaff=0 / constrained_intra=0 / bframes=6 / b_pyramid=2 / b_adapt=1 / b_bias=0 / direct=1 / wpredb=1 / wpredp=2 / keyint=250 / keyint_min=25 / scenecut=40 / intra_refresh=0 / rc_lookahead=40 / rc=2pass / mbtree=1 / bitrate=6725 / ratetol=1.0 / qcomp=0.60 / qpmin=10 / qpmax=51 / qpstep=4 / cplxblur=20.0 / qblur=0.5 / ip_ratio=1.40 / aq=1:0.80 / pulldown=0 / nal_hrd=0
Language : English
Audio #2
ID : 2
Format : AC-3
Format/Info : Audio Coding 3
Mode extension : CM (complete main)
Codec ID : A_AC3
Duration : 1h 49mn
Bit rate mode : Constant
Bit rate : 384 Kbps
Channel(s) : 6 channels
Channel positions : Front: L C R, Side: L R, LFE
Sampling rate : 48.0 KHz
Bit depth : 16 bits
Stream size : 302 MiB (5%)
Title : MVO AC3 5.1 384 kbps
Language : Russian
Audio #3
ID : 3
Format : AC-3
Format/Info : Audio Coding 3
Mode extension : CM (complete main)
Codec ID : A_AC3
Duration : 1h 49mn
Bit rate mode : Constant
Bit rate : 384 Kbps
Channel(s) : 6 channels
Channel positions : Front: L C R, Side: L R, LFE
Sampling rate : 48.0 KHz
Bit depth : 16 bits
Stream size : 302 MiB (5%)
Title : DVO AC3 5.1 384 kbps
Language : Russian
Audio #4
ID : 4
Format : AC-3
Format/Info : Audio Coding 3
Mode extension : CM (complete main)
Codec ID : A_AC3
Duration : 1h 49mn
Bit rate mode : Constant
Bit rate : 192 Kbps
Channel(s) : 2 channels
Channel positions : Front: L R
Sampling rate : 48.0 KHz
Bit depth : 16 bits
Stream size : 151 MiB (2%)
Title : Gorchakov AC3 2.0 192 kbps
Language : Russian
Audio #5
ID : 5
Format : AC-3
Format/Info : Audio Coding 3
Mode extension : CM (complete main)
Codec ID : A_AC3
Duration : 1h 49mn
Bit rate mode : Constant
Bit rate : 448 Kbps
Channel(s) : 6 channels
Channel positions : Front: L C R, Side: L R, LFE
Sampling rate : 48.0 KHz
Bit depth : 16 bits
Stream size : 352 MiB (6%)
Title : Original AC3 5.1 448 kbps
Language : English
Text #6
ID : 6
Format : UTF-8
Codec ID : S_TEXT/UTF8
Codec ID/Info : UTF-8 Plain Text
Language : Russian
Text #7
ID : 7
Format : UTF-8
Codec ID : S_TEXT/UTF8
Codec ID/Info : UTF-8 Plain Text
Language : Russian
Text #8
ID : 8
Format : UTF-8
Codec ID : S_TEXT/UTF8
Codec ID/Info : UTF-8 Plain Text
Language : English
--

Скриншоты


Создавать темы 28-Янв-2014 23:59

[Профиль]  [ЛС] 

alexey.555

Стаж: 5 лет 6 месяцев

Сообщений: 137

Симпатии: 22

Классный фильм. Одна из лучших ролей Вэл Килмера. Люблю этот фильм

Создавать темы 29-Янв-2014 18:24

[Профиль]  [ЛС] 

maxuz ®

Стаж: 6 лет 8 месяцев

Сообщений: 55

Симпатии: 3

Классный фильм. Одна из лучших ролей Вэл Килмера. Люблю этот фильм
да стоит того

Создавать темы 29-Янв-2014 23:22

[Профиль]  [ЛС] 

maxuz ®

Стаж: 6 лет 8 месяцев

Сообщений: 55

Симпатии: 3

надо смотреть естли еше этого филыма в моём винте

Создавать темы 19-Дек-2014 18:15

[Профиль]  [ЛС] 
Показать сообщения:    
Ответить на тему

Текущее время: 18-Окт 05:27

Часовой пояс: UTC + 5



Вы не можете начинать темы
Вы не можете отвечать на сообщения
Вы не можете редактировать свои сообщения
Вы не можете удалять свои сообщения
Вы не можете голосовать в опросах
Вы не можете прикреплять файлы к сообщениям
Вы не можете скачивать файлы