Советник / The Counselor (Ридли Скотт / Ridley Scott) [2013, США, Великобритания, Криминал, триллер, драма, HDRip] (Лицензия)

Ответить на тему
 

Suxrob89 ®

Стаж: 7 лет 2 месяца

Сообщений: 933

Симпатии: 564

-Советник / The Counselor- Страна: США, Великобритания
Жанр: Криминал, триллер, драма
Год выпуска: 2013
Продолжительность: 01:57:22
Перевод: Профессиональный (дублированный) (Лицензия)
Cубтитры: Нет-Режиссер: Ридли Скотт / Ridley Scott-В ролях: Майкл Фассбендер, Пенелопа Крус, Кэмерон Диаз, Хавьер Бардем, Брэд Питт, Бруно Ганц, Рози Перес, Тоби Кеббелл, Эмма Ригби, Эдгар Рамирез-Описание: Успешный адвокат, стоящий практически на вершине успеха и на пороге собственной свадьбы, из любопытства и, конечно, ради денег соглашается на предложение своего давнего знакомого, имеющего тесные связи с преступным миром, перевезти из Мексики в США партию кокаина стоимостью 20 млн. долл- -Качество видео: HDRip [Рип с BDRip 720p]
Формат видео: AVI
Видео: 1322 kb/s, 720x304, 23.976 fps
Аудио: AC3, 448 kb/s (6 ch), 48.0 KHz

MediaInfo

D:\S0vetn1k.2013.D.HDRip.1.46Gb.avi
General
Complete name : D:\S0vetn1k.2013.D.HDRip.1.46Gb.avi
Format : AVI
Format/Info : Audio Video Interleave
File size : 1.46 GiB
Duration : 1h 57mn
Overall bit rate : 1 780 Kbps
Writing application : VirtualDubMod 1.5.10.2 (build 2540/release)
Writing library : VirtualDubMod build 2540/release
Video #0
ID : 0
Format : MPEG-4 Visual
Format profile : Advanced [email protected]
Format settings, BVOP : 2
Format settings, QPel : No
Format settings, GMC : No warppoints
Format settings, Matrix : Custom
Codec ID : XVID
Codec ID/Hint : XviD
Duration : 1h 57mn
Bit rate : 1 323 Kbps
Width : 720 pixels
Height : 304 pixels
Display aspect ratio : 2.35:1
Frame rate : 23.976 fps
Color space : YUV
Chroma subsampling : 4:2:0
Bit depth : 8 bits
Scan type : Progressive
Compression mode : Lossy
Bits/(Pixel*Frame) : 0.252
Stream size : 1.08 GiB (74%)
Writing library : XviD 1.2.1 (UTC 2008-12-04)
Audio #1
ID : 1
Format : AC-3
Format/Info : Audio Coding 3
Mode extension : CM (complete main)
Format settings, Endianness : Big
Codec ID : 2000
Duration : 1h 57mn
Bit rate mode : Constant
Bit rate : 448 Kbps
Channel(s) : 6 channels
Channel positions : Front: L C R, Side: L R, LFE
Sampling rate : 48.0 KHz
Bit depth : 16 bits
Compression mode : Lossy
Stream size : 376 MiB (25%)
Alignment : Split accross interleaves
Interleave, duration : 42 ms (1.00 video frame)
Interleave, preload duration : 500 ms

Скриншот c названием фильма

Скриншоты



Последний раз редактировалось: Suxrob89 (2014-01-31 08:13), всего редактировалось 1 раз

Создавать темы 29-Янв-2014 07:23

[Профиль]  [ЛС] 

The Khazratov

Стаж: 3 года 8 месяцев

Сообщений: 54

Симпатии: 1

Suxrob89, Спасибо. Когда будеть лицензия

Создавать темы 29-Янв-2014 08:09

[Профиль]  [ЛС] 

СтАсИкОс

Стаж: 6 лет 9 месяцев

Сообщений: 314

Симпатии: 20

http://tas-ix.net/viewtopic.php?t=87303

Создавать темы 31-Янв-2014 01:40

[Профиль]  [ЛС] 

Junkie

Стаж: 4 года 4 месяца

Сообщений: 316

Симпатии: 21

Такой режиссёр, такие актёры... и такой скучный фильмец

Создавать темы 31-Янв-2014 10:07

[Профиль]  [ЛС] 
Показать сообщения:    
Ответить на тему

Текущее время: 21-Окт 22:46

Часовой пояс: UTC + 5



Вы не можете начинать темы
Вы не можете отвечать на сообщения
Вы не можете редактировать свои сообщения
Вы не можете удалять свои сообщения
Вы не можете голосовать в опросах
Вы не можете прикреплять файлы к сообщениям
Вы не можете скачивать файлы