Лига справедливости: Война / Justice League: War (Джей Олива) [2014 г., Мультфильм, Фантастика, Фэнтези, Боевик, Приключения, WEB-DLRip]

Ответить на тему
 

Mrblack ®

Стаж: 6 лет 3 месяца

Сообщений: 247

Симпатии: 52

-Лига справедливости: Война / Justice League: War-- Год выпуска: 2014
Страна: США
Жанр: Мультфильм, Фантастика, Фэнтези, Боевик, Приключения
Продолжительность: 79 мин. / 01:19
Перевод: Любительский (одноголосый)[Hronos]
Режиссер: Джей Олива--В ролях: Мишель Монахэн, Алан Тьюдик, Шон Эстин, Шемар Мур, Джастин Кирк, Кристофер Горам, Джейсон О’Мара, Джордж Ньюберн, Стивен Блум, Брюс Томас--Описание: Мультфильм повествует о начале возникновения Лиги справедливости. В Готэм-сити загадочным образом исчезают люди, в этом винят Бэтмена. Люди считают, что он похищает людей и пьет их кровь. Зеленый Фонарь, дабы покарать виновника похищения, направляется в Готем и встречает там Бэтмена, но под личиной летучей мыши оказывается инопланетный высокотехнологичный робот. Фонарь и настоящий Бэтмен объединяются для борьбы с роботом, который заложил какую-то штуку в канализации города. Как выясняется позже эти штуки есть ничто иное как кротовые норы (порталы для перемещения между измерениями) для вторжения. В общем в итоге все будущие члены Лиги справедливости объединяться для борьбы с могущественным врагом Дарксайдом.--Качество:WEB-DLRip
Формат: AVI
Видео кодек: XviD
Аудио кодек: AC3,MP3
Видео: 720x400 (1.80:1), 23.976 fps, XviD build 50 ~1948 kbps avg, 0.28 bit/pixel
Аудио: 48 kHz, MPEG Layer 3, 2 ch, ~128.00 kbps avg [Russian]
Аудио: 48 kHz, AC3 Dolby Digital, 3/2 (L,C,R,l,r) + LFE ch, ~384 kbps [English]
-- 

MediaInfo

Расположение: D:\Kino\Лига справедливости-война.2014.WEB-DLRip.avi
Имя файла: Лига справедливости-война.2014.WEB-DLRip.avi
Формат файла: .avi (AVI)
Размер файла: 1.37 GB
Длительность: 1h 19mn
Навигация по главам: Нет
Bitrate (все потоки): 2 475 Kbps
...при помощи: VirtualDubMod 1.5.10.2 (build 2542/release)
...с использованием: VirtualDubMod build 2542/release
Название: Лига справедливости-война.2014.WEB-DLRip
Тип потока: Видео
Длительность: 01:19:24
Кодек: MPEG-4 Visual
Кодек/Профиль: Advanced [email protected]
Кодек/ID: XVID
Размеры изображения: 720 x 400 (16:9)
Частота кадров: 23.976 fps
Размер потока: 1.08 GiB (79%)
Битрейт: 1 950 Kbps
Библиотека кодирования: XviD 1.2.1 (UTC 2008-12-04)
Тип потока: Звук #1
Длительность: 01:19:24.384
Кодек: MPEG Audio
Кодек/ID: 55
Частота дискретизации: 48.0 KHz
Каналов: 2 channels
Битрейт: 128 Kbps
Размер потока: 72.7 MiB (5%)
Тип потока: Звук #2
Длительность: 01:19:24.384
Кодек: AC-3
Кодек/ID: 2000
Частота дискретизации: 48.0 KHz
Каналов: 6 channels
Битрейт: 384 Kbps

Скриншоты



Создавать темы 29-Янв-2014 14:15

[Профиль]  [ЛС] 

Tas-ix.Yahoo

Стаж: 4 года 11 месяцев

Сообщений: 121

Симпатии: 6

а там вроде Флеш тоже есть да?

Создавать темы 30-Янв-2014 21:04

[Профиль]  [ЛС] 

VAIO

Стаж: 5 лет 7 месяцев

Сообщений: 1568

Симпатии: 1399

а там вроде Флеш тоже есть да?
Есть, чуток с раздачей помогу.

Создавать темы 30-Янв-2014 21:57

[Профиль]  [ЛС] 

Mrblack ®

Стаж: 6 лет 3 месяца

Сообщений: 247

Симпатии: 52

VAIO, спасибо за помощь!

Создавать темы 31-Янв-2014 01:29

[Профиль]  [ЛС] 

sunstrider

Стаж: 4 года 6 месяцев

Сообщений: 20

Симпатии: 2

Люди помогите скачать.

Создавать темы 03-Фев-2014 01:48

[Профиль]  [ЛС] 
Показать сообщения:    
Ответить на тему

Текущее время: 21-Авг 15:04

Часовой пояс: UTC + 5



Вы не можете начинать темы
Вы не можете отвечать на сообщения
Вы не можете редактировать свои сообщения
Вы не можете удалять свои сообщения
Вы не можете голосовать в опросах
Вы не можете прикреплять файлы к сообщениям
Вы не можете скачивать файлы